<?xml version="1.0" standalone="no"?>
<!DOCTYPE svg PUBLIC "-//W3C//DTD SVG 1.1//EN" "http://www.w3.org/Graphics/SVG/1.1/DTD/svg11.dtd" >
<svg xmlns="http://www.w3.org/2000/svg" xmlns:xlink="http://www.w3.org/1999/xlink" version="1.1">
<metadata></metadata>
<defs>
<font id="break_brushregular" horiz-adv-x="897" >
<font-face units-per-em="2048" ascent="1638" descent="-410" />
<missing-glyph horiz-adv-x="309" />
<glyph horiz-adv-x="0" />
<glyph horiz-adv-x="0" />
<glyph unicode="&#xd;" horiz-adv-x="512" />
<glyph unicode=" "  horiz-adv-x="309" />
<glyph unicode="&#x09;" horiz-adv-x="309" />
<glyph unicode="&#xa0;" horiz-adv-x="309" />
<glyph unicode="!" horiz-adv-x="417" d="M8 174q10 51 21.5 99.5t29.5 95.5q8 20 25.5 29.5t38.5 4.5q20 -4 30.5 -15t14.5 -46q12 16 23 30.5t34 20.5q35 8 41 -20q0 -20 -7 -46t-19.5 -52.5t-25.5 -50t-26 -40.5q-10 -14 -15 -12t-17 23q-23 -31 -58 -23q-14 4 -19 10t-5 15.5t1 18.5t-3 17 q-20 -14 -29.5 -31.5t-34.5 -27.5zM116 609q1 9 1 18q10 78 27.5 154.5t39.5 154.5q23 86 43.5 172t32.5 176q0 8 4 29q4 27 29 26q16 2 34.5 3t32.5 -13q8 -8 9 -14q2 -10 3 -19.5t3 -19.5q14 12 17 26.5t9 28.5q14 39 41 39q14 0 41 -16q13 -6 27 -4q31 2 40 -7.5t1 -33.5 q-35 -102 -72 -202.5t-78 -201.5q-35 -86 -69.5 -171t-57.5 -175q-4 -18 -19 -34.5t-28 -32.5q-6 -8 -16 -10.5t-21 -4.5q-41 -6 -34 33q6 49 14 98t18 99q2 10 4.5 20t-4.5 25q-23 -39 -32 -80t-31 -82q-10 10 -9 19z" />
<glyph unicode="&#x22;" horiz-adv-x="831" d="M207 1063q-2 20 2 39.5t8 40.5q4 37 6 74.5t-2 74.5q-2 43 37 49q35 6 53 -20q6 -8 9.5 -18.5t17.5 -20.5v29q0 29 6 38t31 15q69 16 92 -27q8 -16 13 -33.5t-1 -33.5q-20 -70 -53 -134.5t-86 -123.5q-2 12 1 21t8 17.5t9 16.5t4 18q-49 -41 -78.5 -89t-70.5 -93 q4 66 24.5 127.5t24.5 124.5q-18 -23 -28.5 -46.5t-26.5 -45.5zM535 1063q-2 20 2 39.5t8 40.5q4 37 6 74.5t-2 74.5q-2 43 37 49q35 6 53 -20q6 -8 9 -18.5t18 -20.5v29q0 29 6 38t30 15q70 16 93 -27q8 -16 13 -33.5t-1 -33.5q-20 -70 -53 -134.5t-86 -123.5q-2 12 1 21 t8 17.5t9 16.5t4 18q-49 -41 -78.5 -89t-70.5 -93q4 66 24.5 127.5t24.5 124.5q-18 -23 -28.5 -46.5t-26.5 -45.5z" />
<glyph unicode="#" horiz-adv-x="1087" d="M-86 555q6 10 14 12q20 8 24.5 20.5t8.5 28.5q8 49 70 52q8 0 12 2h23q4 2 12 2q18 2 29.5 2t17.5 3t10 12t10 30q2 10 6.5 18t0.5 21q-33 -4 -63 -5t-58 -5q-10 -2 -20.5 -3.5t-20.5 3.5q-25 6 -19 26q6 29 24.5 44.5t59.5 23.5h6q4 2 5 2q4 8 -2.5 13t-8.5 9 q-6 20 4.5 33.5t36.5 13.5q35 0 68 -6q33 -2 41 23q10 33 20.5 67.5t26.5 65.5q25 49 63 49q10 0 21.5 -2t23.5 -6q8 0 9.5 5t5.5 11q12 31 53 21q14 -2 33 -11q31 -12 35 -21t-15 -34q-27 -33 -35 -71q14 20 27 30q20 20 43 6q10 -4 11 -12t-3 -18q-8 -16 -15 -31.5 t-17 -32.5l-5 -10l-12 -23q0 -2 -4 -10q4 -2 6 -4t4 -2q37 -2 56.5 -3t31 6t18.5 22.5t17 46.5q8 23 14.5 44t16.5 44q12 29 26.5 41t38.5 12q20 0 48 -6q8 4 9 9t3 9q16 29 51 19l25 -6q41 -12 45 -23.5t-19 -42.5q-6 -10 -11 -19.5t-7 -23.5q14 10 28 16q16 6 35 -4 q12 -10 4 -28q-12 -27 -24.5 -52.5t-24.5 -54.5q23 -8 46.5 -7t45.5 -11q-10 -14 -27.5 -13.5t-33.5 -9.5q35 -16 68.5 -12t66.5 -6q-4 -10 -11 -11.5t-13 -1.5q-41 0 -79 -7t-77 -5q-18 0 -29 -16q-14 -29 -27.5 -58.5t-23.5 -64.5h131q-14 -12 -31.5 -13t-36.5 -5 q29 -12 60 -13.5t59 -11.5q-14 -10 -28.5 -11t-30.5 -3q-33 -4 -64.5 -6.5t-64.5 -4.5q-31 0 -41 -28l-62 -123q-4 -4 -6 -12.5t-12 -4.5t-10 11.5t2 13.5l24 80q12 20 9 47q-23 -18 -29 -39.5t-16 -40.5q-10 -20 -19.5 -40.5t-19.5 -43.5q-37 -88 -78 -168l-10 4 q10 43 21 87t22 91q-16 -10 -21.5 -22t-13.5 -23q-6 -10 -12.5 -19t-14.5 -17q-6 -8 -12 -18.5t-25 -4.5q-14 6 -11 15.5t7 19.5q12 45 24.5 90t28.5 90q8 25 -22 23q-29 -4 -59.5 -5.5t-59.5 -3.5q-27 0 -37 -24q-16 -29 -31.5 -56.5t-33.5 -60.5q-8 18 -6 35.5t8 33t11 30 t3 30.5q-14 2 -17 -6t-7 -14l-105 -222q-6 -14 -13 -29.5t-24 -31.5q6 49 20.5 92t18.5 94q-18 -29 -33.5 -49t-31.5 -41q-4 -4 -9.5 -9t-15.5 -3q-12 4 -13 11t3 14q8 29 16 56.5t19 55.5q4 12 7 25.5t7 27.5q-27 4 -50.5 -1t-47.5 -5q-8 0 -16.5 -2t-18.5 -2q-27 0 -33 17 q-6 8 -2 18zM379 682h53q41 0 63.5 3t34 13.5t14.5 31t5 56.5q-29 -2 -55.5 -2t-53.5 -2q-20 0 -28 -14q-10 -23 -20.5 -42t-12.5 -44z" />
<glyph unicode="$" horiz-adv-x="831" d="M-76 410.5q-6 7.5 4 15.5q8 8 16.5 5t16.5 -7q18 -4 37.5 -9t36.5 -12q37 -10 67 -10q31 0 56 8q-66 8 -98.5 19.5t-63.5 38.5q66 -12 123 -13q88 0 170 24t162 67q-41 16 -79 18t-73 6q-55 6 -107.5 20.5t-103.5 36.5q43 -4 85 -14t87 -10h86t86 4q-55 14 -121 14 q-33 0 -64.5 2t-64.5 7q-16 4 -30.5 8t-28.5 8q-104 41 -80 133q10 39 32.5 70.5t55.5 60.5q10 8 21.5 17.5t25.5 21.5q-20 -6 -34.5 -11t-30 -19.5t-38 -41t-63.5 -75.5q-6 10 0 18t11 16q47 98 141 167t203 85q25 4 41 13.5t26 31.5q25 43 31 93q2 10 14.5 18t27.5 13 t31.5 5t24.5 -6q10 -8 9 -17t-5 -20q-10 -27 -19 -53.5t-16 -52.5q20 16 31.5 38.5t34.5 45.5q8 -16 5 -31.5t-7 -28.5q-6 -20 -2 -34.5t31 -24.5q45 -23 67.5 -70t9.5 -88q-10 -41 -33 -74.5t-46 -74.5q-4 10 -2 19.5t5 16.5t5 15t-2 16q-27 -23 -46.5 -47t-41.5 -51 q10 29 7 57.5t7 57.5q8 27 12 59q2 12 -1 23.5t-17 23.5q-4 -35 -6 -64.5t-19 -58.5q6 31 2 68q-6 47 -61 35l-14 -6q-63 -31 -125 -65t-107 -85t31 -67q29 -4 59.5 -7.5t59.5 -3.5q-39 -8 -97 -8q-68 0 -129 12q20 -16 40 -20t42 -8q59 -8 120 -11.5t120 -5.5 q33 -2 65.5 -5t65.5 -13q63 -18 83.5 -59t-7.5 -88q-18 -29 -49 -67t-68 -72t-77 -57.5t-79 -23.5q35 27 71 50.5t60 58.5q-23 -14 -46 -28.5t-46 -30.5q-10 -6 -18 -12.5t-19 -10.5q-31 -10 -44 -29.5t-19 -44.5q-25 -78 -58.5 -151.5t-66.5 -149.5q-2 -14 -20 -18 q4 57 19 112.5t24 114.5q-29 -27 -38.5 -59.5t-43.5 -61.5q10 51 18 94.5t18 86.5q4 16 5 24q4 23 -0.5 26t-32.5 7q-47 6 -87 23.5t-77 39.5q31 0 65 -14q4 10 -5 13t-17 7q-47 23 -84 54q-6 4 -11 10t-12 12q-4 8 -10 15.5zM66 299q59 -18 122 -8q-27 2 -49 2t-45 8 q-14 6 -28 -2zM397 418q55 18 104.5 44t76.5 75q-47 -29 -90.5 -60t-90.5 -59z" />
<glyph unicode="%" horiz-adv-x="1181" d="M102 12q16 47 41 89t50 87q27 43 52 86t42 91q-25 -23 -41.5 -49.5t-42.5 -49.5q-8 8 -2 19q53 109 113.5 212t125.5 203q72 106 137.5 214t137.5 212q20 29 33.5 61t35.5 60q6 10 12.5 18.5t14.5 18.5q29 31 51 31q18 0 53 -21q18 8 29.5 20.5t22.5 26.5q18 23 53 21 q27 -4 36 -19.5t-3 -35.5q-4 -8 -17 -21q-4 -6 -8 -11t-4 -13q6 -6 18 -2q8 4 14.5 9t16.5 -5q10 -12 0 -29q-23 -39 -44 -76t-50 -74q-100 -131 -191 -270q-39 -59 -86 -113.5t-84 -113.5q-2 -4 -4 -6t-4 -7l-16 -24q-2 -4 -4 -6t-4 -6q-74 -119 -170 -220 q-29 -35 -53.5 -70.5t-49.5 -70.5q-12 -18 -28 -35q12 57 44.5 107.5t49.5 103.5q-66 -88 -132.5 -174t-144.5 -168zM104 866q-8 78 12.5 154t65.5 141q18 27 42 55.5t52.5 54t60.5 45t64 25.5q23 4 42.5 3t39.5 -19q16 -16 35 -30.5t39 -24.5q4 6 3 12t-3 11t-4 11.5 t0 12.5q10 0 15 -5t10 -12q23 -27 25.5 -56.5t-3.5 -59.5q-49 -203 -233 -332q-41 -29 -87.5 -43t-105.5 -4q16 -29 42.5 -32t53.5 -9q-63 -16 -112 14.5t-54 87.5zM236 918q0 -16 20 -21q16 -2 28.5 1t16.5 20q-24 0 -49 12q-10 6 -13 1t-3 -13zM254 958q12 -37 51 -20 q27 8 47 39q27 37 52.5 73.5t50.5 73.5q14 20 18 40t4 44q-2 10 -5 19.5t-15 13.5t-22.5 0t-18.5 -10q-23 -16 -45 -43q-62 -86 -111 -184q-12 -20 -6 -46zM440 1286q20 -6 32 -17.5t22 -27.5q-2 31 -11.5 40t-42.5 5zM510 90q-8 78 12.5 155t63.5 142q29 39 60.5 74 t70.5 65q35 31 82 41q27 6 48 6t44 -22q16 -16 34.5 -30.5t37.5 -26.5q12 14 1.5 24.5t-8.5 22.5q10 6 15.5 1t9.5 -10q23 -29 28 -58.5t-3 -59.5q-25 -102 -82.5 -186.5t-155.5 -149.5q-23 -16 -41 -25.5t-38.5 -14.5t-47.5 -7t-66 -2q23 -23 50.5 -29t62.5 -2 q-10 -12 -22.5 -14t-22.5 0q-55 4 -92 31.5t-41 74.5zM647 162q-15 -27 10 -35q33 -10 52 16q-18 0 -31.5 7.5t-30.5 11.5zM659 190q4 -20 19.5 -27t36.5 3q14 6 24.5 16.5t18.5 20.5q55 78 104 153q17 23 21 56v24q0 23 -19 33q-14 4 -23.5 0t-17.5 -10q-29 -20 -51 -49 q-29 -43 -55.5 -85t-48.5 -89q-12 -18 -9 -46zM848 512q23 -4 32 -17.5t21 -29.5q-2 33 -12 43t-41 4z" />
<glyph unicode="&#x26;" horiz-adv-x="978" d="M-131 338q0 76 17.5 136.5t50 109.5t83 90t113.5 78q27 14 29 20t-6 33q-20 57 -19.5 117.5t21.5 117.5q4 -31 3 -62.5t7 -62.5q6 25 12 50.5t10 50.5q6 43 37 88t80 84t110.5 65.5t125.5 30.5q61 6 115.5 -21.5t76.5 -76.5q18 -41 13 -86q-8 -45 -29 -86t-41 -88 q-8 18 0 31.5t2 31.5q-25 -39 -43.5 -77t-50.5 -70q-16 10 -15.5 19t4.5 22q12 41 24.5 81t16.5 87q-18 -20 -20 -41t-23 -37q2 35 9.5 66.5t-0.5 64.5q0 10 -2 16q-4 23 -13.5 28t-36.5 -1q-25 -4 -48 -16.5t-40 -32.5q-39 -47 -48 -96.5t1 -102.5q2 -6 5 -11t-1 -14 q-16 4 -15 14.5t-9 16.5q-6 -25 2 -62.5t29.5 -84.5t54.5 -101.5t76 -109.5q12 2 18 10t14 14t14.5 13.5t16.5 17.5q-33 2 -45 18.5t-23 34.5q-10 16 -3.5 35t16.5 35q8 8 8 23q-6 33 8 45t53 10q29 -2 60 -4t59 -6q23 -2 44.5 -3.5t43.5 1.5q51 2 101.5 -0.5t101.5 -10.5 l-152 -35q20 -8 42 -9t42.5 -1t42 -2t41.5 -12q-139 -18 -282 -53h190q-4 -10 -12 -11.5t-16 -1.5q-47 -4 -89.5 -13t-87.5 -19q-12 -2 -23 -5.5t-15 -13.5q-16 -39 -48 -69.5t-63 -59.5q-8 -8 -6 -16q20 6 29.5 12t41.5 35q16 14 31 29.5t31 31.5q12 -10 8 -15t-8 -9 q-20 -27 -42 -48.5t-44 -43.5q-20 -20 -21.5 -28.5t13.5 -31.5q39 -53 69.5 -109.5t63.5 -113.5q4 -10 10 -19.5t4 -23.5q-16 8 -23.5 21.5t-23.5 21.5q29 -47 44 -97.5t32 -101.5q-53 59 -101.5 122t-115.5 114q8 -37 23.5 -72t31.5 -70q-10 -2 -14 3.5t-9 9.5 q-41 41 -81.5 81t-75.5 85q-20 25 -31 24q-8 0 -33 -18q-12 -8 -20 -12q-25 -18 -57.5 -38t-67.5 -37.5t-71 -28.5t-68 -11q-57 0 -113.5 22.5t-85.5 63.5q-20 31 -33.5 63.5t-11.5 67.5zM31 418q16 86 63 149.5t123 114.5q-33 -8 -68.5 -38t-64.5 -68.5t-44 -80.5t-9 -77z M68 393q0 -41 19 -55t71 -10q59 4 108 28.5l99 49.5q16 8 4 24q-35 49 -65 100.5t-62 104.5q-82 -47 -127 -104.5t-47 -137.5zM98 240q23 -8 45 -9q39 0 88 31q-37 -10 -68.5 -16t-64.5 -6zM354 238l23 -2q4 16 19.5 23t17.5 24q-16 -10 -32.5 -19.5t-27.5 -25.5z" />
<glyph unicode="'" horiz-adv-x="503" d="M207 1063q-2 20 2 39.5t8 40.5q4 37 6 74.5t-2 74.5q-2 43 37 49q35 6 53 -20q6 -8 9.5 -18.5t17.5 -20.5v29q0 29 6 38t31 15q69 16 92 -27q8 -16 13 -33.5t-1 -33.5q-20 -70 -53 -134.5t-86 -123.5q-2 12 1 21t8 17.5t9 16.5t4 18q-49 -41 -78.5 -89t-70.5 -93 q4 66 24.5 127.5t24.5 124.5q-18 -23 -28.5 -46.5t-26.5 -45.5z" />
<glyph unicode="(" horiz-adv-x="544" d="M-11.5 555q9.5 129 50.5 262t115.5 263t183.5 245l-117 -209q16 2 19.5 9.5t7.5 13.5q31 47 62.5 90t72.5 84q47 45 94 91t105 85q10 8 35.5 22.5t35.5 14.5q15 0 35 -35q20 23 46 40t57 34q0 -14 -8.5 -21.5t-14.5 -13.5l-106.5 -106.5t-94.5 -112.5 q-121 -172 -202.5 -352.5t-120.5 -376.5q-27 -131 -15.5 -259t52.5 -257l8 -32l8 -32q2 -8 -2 -25q-59 96 -100 190.5t-70 192.5q2 -61 17.5 -119.5t38 -115.5t48 -114.5t47.5 -114.5q-43 35 -91 100t-86 154.5t-58.5 198t-7.5 231.5q-18 -39 -23.5 -83t-5.5 -87l-2 -66v-33 q-23 115 -13.5 244zM649 1475q10 2 17.5 9t17.5 7q-14 2 -18.5 -1t-16.5 -15z" />
<glyph unicode=")" horiz-adv-x="735" d="M-123 -104q2 14 9.5 20t13.5 14q53 53 106 106.5t94 113.5q121 172 203 351t121 376q27 133 15.5 261t-52.5 257q-4 16 -8 30.5t-8 30.5v13.5t2 13.5q59 -96 100 -191.5t70 -193.5q-2 61 -17.5 120.5t-38 117t-48 114.5t-48.5 115q43 -35 91 -100.5t86 -154.5 t58.5 -197.5t8.5 -231.5q20 39 24.5 82t4.5 86l2 67v33q23 -115 13.5 -244t-50.5 -262t-115.5 -263t-183.5 -247q14 27 28.5 52.5t30.5 52.5q14 27 27.5 52t29.5 54q-16 -2 -19 -9t-7 -13q-31 -47 -62.5 -91.5t-72.5 -83.5q-47 -47 -94.5 -92t-102.5 -86l-31 -18 q-31 -18 -43 -19q-14 0 -34 35q-18 -23 -45 -39t-58 -32zM-16 -33q14 0 18 2t16 15q-10 0 -17 -7.5t-17 -9.5z" />
<glyph unicode="*" horiz-adv-x="706" d="M104 897q12 18 32 29.5t36 21.5q18 12 36.5 23.5t41.5 23.5q-23 20 -48.5 33.5t-49.5 28.5q-10 6 -20.5 12t-18.5 16q-23 29 14 41q12 4 15 8.5t5 14.5q4 31 31 31q12 0 27 -9q29 -14 52.5 -32.5t49.5 -36.5q20 29 30.5 59.5t33.5 59.5q2 2 6 10q14 27 51 20 q31 -2 27 -30q-2 -20 20 -11q16 10 19.5 4t-0.5 -16q-6 -23 -13.5 -43t-15.5 -45q41 16 78 34.5t84 26.5q-4 -16 -10.5 -30.5t-2.5 -28.5q2 -4 0.5 -9t8.5 -9q29 -8 20.5 -15.5t-20.5 -13.5q-33 -16 -65 -29.5t-62 -29.5q-20 -8 -45 -23l69 -72l-4 -4l-63 37 q16 -29 36.5 -57.5t40.5 -63.5q-35 23 -63.5 41.5t-58.5 34.5q-25 12 -29 12q-6 0 -10 -6t-13 -18q-18 -27 -26 -56.5t-21 -58.5q-10 6 -8 16.5t-10 14.5q-20 -23 -25.5 -49.5t-23.5 -51.5q-8 25 -6 47.5t4 45.5t8 45t12 45q-23 -2 -37 -11.5t-33 -11.5q-2 8 5.5 11.5 t9.5 11.5q-27 0 -45.5 -14.5t-46.5 -18.5q10 18 28.5 26.5t32.5 22.5q-18 4 -33.5 -4t-36.5 0z" />
<glyph unicode="+" horiz-adv-x="1099" d="M102 473q-2 47 16.5 66.5t80.5 33.5q4 8 -3.5 8.5t-11.5 2.5q-35 18 -18 47q8 16 16 31.5t19 31.5q10 16 29.5 20.5t37.5 2.5h35l68 -4h32h39.5t21.5 5t11 15t8 31q6 29 12.5 55.5t16.5 54.5q12 39 31.5 51.5t66.5 8.5h17.5t15.5 8q12 12 25 14q10 4 20 6.5t21 2.5 q25 0 43 -13q20 -12 15 -27.5t-11 -31.5l-56 -152q-6 -14 -6 -28q59 -10 117.5 -1t122.5 1q-20 -18 -45 -21.5t-47 -15.5q20 -8 35.5 -7t31.5 1h19l37 -2h18q14 0 14 -9q0 -10 -12 -14q-18 -4 -36.5 -8t-37.5 -8q-59 -10 -114.5 -22.5t-112.5 -22.5q-35 -6 -41 -33 q-4 -12 -6 -16l-10 -37q-2 -4 -6 -17q-25 -88 -72 -172q-16 6 -11 17.5t-3 25.5q-45 -94 -86 -184q-16 72 -4 143.5t28 147.5q-25 -27 -34 -54.5t-36 -54.5q8 49 14.5 95.5t12.5 93.5q-86 -10 -167 -27.5t-161 -38.5z" />
<glyph unicode="," horiz-adv-x="237" d="M-37 283q0 59 25 110q10 25 34.5 39t53.5 14q25 0 49 -12q6 -4 11.5 -8t15.5 -2q39 2 45 -29v-18t-4 -19q-25 -61 -50.5 -122.5t-70.5 -114.5q-6 -12 -19 -10q-4 31 2 62.5t-6 62.5q-10 -4 -20.5 -6.5t-18.5 -2.5q-45 0 -47 56z" />
<glyph unicode="-" horiz-adv-x="1099" d="M102 473q-2 47 16.5 66.5t80.5 33.5q4 8 -3.5 8.5t-11.5 2.5q-35 18 -18 47q8 16 16 31.5t19 31.5q10 16 29.5 20.5t37.5 2.5l666 -4q-20 -18 -45 -21.5t-47 -15.5q20 -8 35.5 -7t31.5 1h19l37 -2h18q14 0 14 -9q0 -10 -12 -14q-18 -4 -36.5 -8t-37.5 -8z" />
<glyph unicode="." horiz-adv-x="221" d="M-37 276q0 74 27 136q6 16 29.5 25t50.5 9t47 -10q10 -6 17.5 -11t21.5 3q10 4 17 0t7 -14q0 -14 -6 -31q-23 -49 -50.5 -97t-60.5 -93q-16 10 -13 20t-3 20q-4 4 -10 2t-12 -2q-57 -4 -62 43z" />
<glyph unicode="/" horiz-adv-x="827" d="M-252 -113q35 92 89 174t93 175q-25 -23 -43 -49.5t-47 -49.5v15q55 106 110.5 211.5t131.5 203.5q2 2 2 4q72 129 158 252t157 252q12 25 28.5 47.5t33.5 42.5q25 25 47 25q16 0 41 -12q10 -4 16 -3t15 7q20 16 30 32q18 25 47 25q18 0 29 -8q33 -18 6 -55 q-2 -4 -5 -7.5t-5 -7.5q-4 -6 -9 -11t1 -11q6 -8 12 -4t14 8q10 6 15.5 0.5t9.5 -13.5q0 -16 -8 -24q-20 -35 -40 -68.5t-44 -64.5q-53 -72 -104.5 -143.5t-98.5 -143.5q-37 -55 -82 -106.5t-80 -110.5q-2 -4 -4 -6t-4 -6l-16 -23q-2 -4 -4 -6t-4 -6q-78 -127 -175 -227 q-29 -33 -52 -66t-46 -68q-6 -10 -11 -19t-15 -15q-8 4 -11 4l101 192l-11 4q-63 -88 -126.5 -174t-141.5 -166z" />
<glyph unicode="0" horiz-adv-x="829" d="M-25 375q2 100 27 203.5t66 203t96 190.5t123 165q23 31 59 47q-35 -45 -60.5 -85t-39.5 -83q57 61 112 131q6 8 19.5 20.5t28 24.5t30 20.5t27.5 8.5t37 -13q6 -4 13 -7t13 -7q72 -35 11 -82q-29 -23 -49.5 -47.5t-41.5 -52.5q-10 -10 -6 -23q25 16 42.5 33.5t43.5 28.5 q10 -10 6 -17.5t-10 -13.5q-86 -92 -135 -195.5t-90 -212.5q-18 -53 -33.5 -106t-11.5 -111q0 -43 31 -80q16 -16 32.5 -20t40.5 2q70 18 103 88q41 88 75.5 176t47.5 182q6 43 11 85t9 83q4 45 -2 88t-10 88q-2 4 -3 9.5t5 11.5q12 -8 16 -18.5t6 -21.5t5.5 -22.5 t13.5 -21.5q-6 92 -41 180l-9 22.5t5 16.5q16 10 24.5 -1t18.5 -21q27 -23 45 -51.5t37 -59.5q6 14 4 23.5t-6 19.5v9t10 7q14 4 18 -10q12 -18 20.5 -48t12.5 -63.5t5 -65.5t1 -52q-2 -111 -25.5 -245t-75.5 -259t-135 -225.5t-200 -143.5q-14 -6 -30.5 -8t-35.5 -2 q-45 0 -91 16.5t-74 45.5q-29 25 -50.5 52t-33.5 60q-6 -31 10.5 -56t28.5 -56q-29 18 -41.5 34.5t-24.5 49.5q-14 45 -21.5 90t-3.5 92zM193 289q6 -68 71 -88q47 -13 88 22q-57 -6 -94 12.5t-65 53.5z" />
<glyph unicode="1" horiz-adv-x="600" d="M102 72q35 215 93.5 419.5t111.5 409.5q-20 4 -34.5 -4t-34.5 -4q16 16 38.5 22.5t42.5 22.5q-20 4 -34.5 -3t-28.5 -5q-8 0 -16.5 -1t-14.5 5q-6 8 -3 14t7 15q6 10 17.5 17t23.5 13q18 8 38 16.5t44 18.5q-23 4 -37 -2t-28 -10q-45 -8 -58 14q-10 16 -4 39t23 29 q49 23 94 37q16 6 31.5 12t21.5 24q4 10 11.5 14.5t17.5 -11.5q8 -10 16.5 -6.5t16.5 6.5q53 16 107 31.5t110 27.5q14 6 28 4q-18 -18 -42.5 -23.5t-43.5 -19.5q14 -2 22.5 -4t16 0t15.5 7t20 15q10 -18 2 -36q-4 -6 -5 -13.5t-5 -13.5l-16 -55q-4 -8 -5.5 -14.5 t-5.5 -14.5q-68 -150 -128 -300.5t-117 -303.5q-33 -84 -68 -166t-76 -162l-8 -8q-4 23 5 41t9 39q-39 -57 -64.5 -116.5t-62.5 -119.5q4 45 9.5 90t11.5 97q-25 -20 -32 -44t-32 -40z" />
<glyph unicode="2" horiz-adv-x="841" d="M-147 78q18 23 36.5 45t34.5 45q18 25 38 49.5t13 58.5q-4 16 11.5 26.5t33.5 14.5q23 4 39.5 14.5t30.5 26.5q74 80 144.5 161t140.5 163q45 53 90 105.5t92 105.5q14 16 25.5 32.5t15.5 37.5q6 33 -33 32q-47 4 -86 -22q-10 -6 -20 -12.5t-21 -14.5l-86 -49 q-10 -8 -20 -14t-21 -13q55 68 123 123q-31 -8 -61 -32q-47 -41 -98.5 -80t-96.5 -84q-10 -10 -22.5 -21.5t-30.5 -5.5q-18 4 -17 18.5t-4 26.5q-14 51 21 86q14 16 21.5 35.5t-15.5 42.5q-6 6 -2 14t8 17q18 33 51 61q78 59 163 104.5t190 61.5q43 6 87 0t83 -24.5 t67.5 -45t42.5 -59.5q16 -49 2 -94q-18 -82 -66 -164t-109.5 -158t-131.5 -141.5t-133 -114.5q-6 -6 -18 -14q27 39 61.5 73.5t58.5 75.5q-10 4 -14 0l-8 -8q-55 -47 -107.5 -98t-117.5 -92q-6 -4 -14.5 -10.5t-10.5 -18.5q111 0 219.5 9t218.5 -1q-31 -16 -64.5 -19 t-66.5 -16h56.5t56.5 -2q8 0 17 1t14 -9q4 -10 -1.5 -19t-13.5 -14q-10 -6 -21.5 -9t-21.5 -7q-35 -12 -70.5 -23.5t-70.5 -25.5q29 -4 57.5 3t57.5 -1q-6 -12 -17.5 -14t-21.5 -7q-262 -84 -539 -143q-10 -2 -20.5 -4t-20.5 -2q-18 0 -27 12q-12 20 7.5 27.5t29.5 15.5 q-4 10 -14 15.5t-18 13.5q-23 -8 -38.5 -26.5t-47.5 -20.5zM389 1143q70 16 133.5 31.5t134.5 5.5q-41 29 -94 28q-86 1 -174 -65z" />
<glyph unicode="3" horiz-adv-x="774" d="M-84 10q53 51 115.5 91t118.5 94q-25 -2 -45.5 -12.5t-40 -20.5t-40 -20.5t-44.5 -16.5q12 25 29.5 39t33.5 29q74 66 155 123t158 116q27 20 51.5 40t45.5 44q16 23 10 31t-35 12q-45 4 -88 -3t-84 -19q-16 -6 -30.5 -12.5t-37.5 -8.5q23 23 50.5 32t54.5 25 q-27 2 -46.5 -6t-37.5 -12q-18 -6 -35.5 -13t-34.5 -16q-29 -10 -41 -4t-16 31q-4 8 -5 14t-16 13q-45 14 0 34q14 8 28.5 13.5t31.5 11.5q27 8 49 29q-10 6 -19.5 5t-18.5 -4t-18.5 -5t-19.5 2q23 23 46.5 40t49.5 33q59 35 112.5 73t107.5 77q35 25 59.5 52.5t52.5 55.5 q31 35 -22 35q-35 0 -73 -10t-75 -26.5t-72.5 -36t-64.5 -35.5q-10 -6 -17.5 -13.5t-23.5 -5.5q-8 8 -7 16.5t-3 18.5q-8 31 26 47q10 4 34 13.5t49.5 19.5t47 21.5t29.5 17.5q-23 -4 -41 -11.5t-35 -13.5q-12 -4 -23 -8t-24 -8q-51 -16 -71 10q-10 16 -13.5 32.5t9.5 33.5 q12 12 14 18q0 4 -6 4l-4 -2q-6 0 -6 4q-2 4 1 6t5 4q92 41 185 73t202 24q53 -4 95 -20.5t75 -55.5q0 27 -4 35t-29 30q47 -4 76 -45q35 -55 8 -120q-14 -37 -50 -72t-79 -65.5t-88 -56.5t-78 -42q-16 -8 -30.5 -15t-30.5 -22q16 -4 30.5 -5t28.5 -3q92 -12 141 -68.5 t33 -134.5q-4 -29 -11 -55.5t-14 -54.5q16 0 19.5 9t13.5 13q2 0 6 -4q0 -4 -2 -6q-23 -35 -48 -71t-60 -64q-49 -41 -99.5 -82t-99.5 -82q-14 -12 -28.5 -23.5t-41.5 -7.5q-8 2 -18 -6t-20 -14q-23 -10 -44.5 -23.5t-54.5 -13.5l64 43q-43 -4 -76 -21.5t-68 -31.5 q-37 -16 -72.5 -29.5t-70.5 -30.5zM375 1069q35 0 41 14q-10 0 -18.5 -4t-22.5 -10z" />
<glyph unicode="4" horiz-adv-x="837" d="M-48 466.5q7 18.5 11 35.5q4 14 20.5 20t20.5 17q4 10 -2 22t0 27q23 53 50.5 105t62.5 102q25 33 45 67.5t37 71.5q29 66 68.5 127t74.5 127q14 23 45 22q31 0 45 -20q6 -10 0 -23q-4 -8 -8 -17t-8 -22q27 2 47 27q6 10 12 17.5t12 15.5q6 6 12.5 12t16.5 2q8 -8 10 -14 q2 -8 -4 -19q-4 -6 -14 -16q-6 -10 4 -18q20 -23 20 -29t-16 -29q-66 -82 -129 -160.5t-123 -162.5q-6 -8 -13 -17.5t-11 -27.5q35 35 61.5 66.5t65.5 53.5q-4 -6 -9.5 -12t-11.5 -12l-39 -51q-25 -35 -50.5 -68t-49.5 -68q53 -4 98 1.5t92 7.5q16 0 23.5 23.5t9.5 35.5 q27 123 67 240.5t72 240.5q4 12 8.5 24.5t24.5 20.5q8 -33 55 -26q31 2 27 -29q-2 -14 -4 -28.5t2 -30.5q27 37 35 73q6 27 24.5 31t40.5 4q29 0 54.5 2t37.5 33q10 -14 7.5 -24.5t-5.5 -20.5q-6 -31 -17 -59.5t-23 -57.5q-41 -94 -79 -187t-77 -187q-4 -10 -7 -18.5 t-7 -18.5q-6 -18 16 -21q12 0 24.5 2t22.5 -8q-20 -8 -41.5 -8t-38.5 -10v-11h127q-8 -25 -27.5 -40t-44.5 -19q-59 -10 -86.5 -40t-44.5 -75q-29 -78 -60.5 -151.5t-64.5 -149.5q-4 -14 -11 -26.5t-13 -26.5q-10 12 -2 24.5t0 26.5q-27 -45 -48.5 -90t-45.5 -90 q-2 57 9 114.5t15 118.5q-20 -20 -28.5 -41.5t-30.5 -37.5q4 20 6 40.5t6 40.5t8 41t8 43q4 12 5 21l12 39q6 29 13 56.5t11 55.5q-51 -12 -97 -23t-93 -26q-35 -10 -69.5 -23.5t-69.5 -25.5q-10 -4 -23.5 -7t-23.5 7q-10 12 -2 22.5t18 18.5q6 8 15.5 10t19.5 7 q33 12 66.5 21t62.5 28q-33 0 -62.5 -9.5t-60.5 -15.5q-12 -2 -24.5 -6t-24.5 -4q-16 0 -29 12q-18 16 -11 34.5zM168 455q14 -4 26.5 1t24.5 13q-26 2 -51 -14zM190 645q23 20 29 45q-14 -10 -20 -19t-9 -26z" />
<glyph unicode="5" horiz-adv-x="960" d="M0 12q8 14 18.5 20.5t20.5 14.5q57 39 113.5 76t111.5 78q129 90 244 205q37 37 31 86q-4 29 -18.5 41t-49.5 16q-57 8 -114.5 4t-112.5 -18q-18 -6 -37 -9.5t-37 -7.5q10 12 24.5 17.5t30.5 13.5q59 29 123 47q-10 4 -19.5 5t-19.5 1q-27 0 -51 -6q-31 -6 -59.5 -16.5 t-57.5 -20.5q-4 -2 -10 -3t-12 3t-5 9t3 10q4 12 8 23l8 22q25 61 37 127q4 23 9 43t11 43l25 86q16 59 -55 59h-19.5t-19.5 4q10 14 27.5 16.5t33.5 12.5q0 10 -6 20t0 23q10 16 41 30q12 6 6 19q-14 23 -5 43t15 43q12 33 56 31q92 -8 181 -9.5t181 -9.5q86 -8 172 -9 t172 -11q-49 -12 -99 -19.5t-99 -23.5q59 -2 120.5 -5t126.5 -14q-68 -16 -129 -35.5t-124 -33.5l43 -6q-10 -14 -25.5 -16.5t-30.5 -6.5q-66 -10 -130 -21.5t-130 -21.5q-25 -4 -39 -13.5t-20 -31.5q-12 -37 -27.5 -74t-30.5 -71q10 -8 18.5 -6.5t16.5 3.5q43 6 84 7 q49 0 108.5 -12.5t112 -39t87 -69.5t34.5 -103q-12 20 -20 36t-19 30q-20 31 -65 33q47 -59 52 -121t-11 -127q-8 -39 -40 -78t-74 -72.5t-86 -59.5t-79 -38q-45 -23 -107.5 -50.5t-107.5 -35.5q25 29 55.5 50.5t61.5 43.5q-10 4 -18.5 0t-12.5 -8q-35 -18 -67.5 -38.5 t-67.5 -41.5q-4 -2 -7 -4t-7 -4l-31 -16q-8 -2 -16 -9q-6 -2 -9.5 0t-6.5 5.5t-7 5.5t-10 -2q-27 -14 -45 -21q-4 -2 -5 -2t-6 -2l-22 -8q-2 -2 -4 -2t-6 -2q-12 -4 -23.5 -8.5t-23.5 -8.5q-8 -2 -14.5 -3t-12.5 -1zM532 711q20 -12 41.5 -13.5t44.5 -5.5q-35 31 -86 19z " />
<glyph unicode="6" horiz-adv-x="806" d="M-72 231q-6 76 7.5 147t39.5 142q31 80 80 169t106.5 176t120 167t121.5 142q25 23 52.5 30.5t62.5 3.5q6 0 13.5 -1t11.5 -5q10 -16 24.5 -25.5t38.5 -7.5q10 0 12.5 -8t-0.5 -16q-2 -10 -8 -16.5t-12 -14.5l-92 -98l6 -6q41 39 82 75.5t82 73.5q10 10 21.5 18.5 t29.5 4.5q37 -6 12 -31q-68 -59 -129 -118.5t-118.5 -121t-110.5 -129t-102 -145.5q-35 -53 -59.5 -107.5t-49.5 -109.5q-33 -76 -20 -158q4 -31 14 -42t33 -11q33 0 66.5 17.5t63 44t53 58t38.5 58.5q10 16 12 37q6 47 -51 31q-39 -10 -68.5 -29.5t-62.5 -40.5 q-8 -6 -25 -12q12 27 32.5 46t41.5 38q23 20 48.5 39.5t49.5 48.5q-55 -18 -91 -49t-77 -54v4l-2 3q53 51 96.5 105t100.5 101q35 29 76 50.5t88 21.5q84 0 106 -82q12 -53 3 -102.5t-21 -98.5q-8 -31 -32 -78t-52.5 -97t-58 -93t-48.5 -65q-41 -49 -100 -84l80 94 q-16 0 -24.5 -9.5t-18.5 -15.5q-12 -8 -23.5 -15t-21.5 -13q-39 -27 -80 -38.5t-84 -11.5q-49 0 -97 13.5t-87 41t-66 67.5t-33 91zM154 154q33 -29 63 -29q33 0 64 37q-23 -6 -41.5 -10.5t-40.5 -4.5q-20 1 -45 7z" />
<glyph unicode="7" horiz-adv-x="1214" d="M102 -43q66 131 136.5 254t134.5 250q-39 -41 -66.5 -87t-70.5 -87q-6 16 0 24t10 17q31 59 57.5 118.5t54.5 118.5q31 63 68 124t78 120q27 41 50.5 83t47.5 87q-78 -4 -149.5 -20.5t-143.5 -22.5v6l-2 2l324 82q-16 10 -24.5 8t-18.5 -6q-74 -18 -150 -33.5t-153 -23.5 q-16 -4 -31.5 -7t-32.5 -10q-27 -6 -42 3.5t-11 31.5q6 41 17.5 55.5t62.5 22.5q10 2 18 3t17 3l73 10q8 2 16.5 3t18.5 4q-35 6 -65.5 -0.5t-63.5 -8.5q-4 0 -9 -2t-11 -2q-55 -6 -68 27q-12 33 33 57q6 4 14 5t10 10q4 27 24.5 28.5t43.5 1.5h239.5t239.5 8 q53 4 106.5 5.5t106.5 -0.5q10 0 22.5 -1t24.5 -6q-2 -16 -11 -23t-23.5 -12.5t-28.5 -9.5t-25 -12q41 -4 81 2t81 10q-8 -8 -13 -12t-15.5 -8t-27.5 -9.5t-50 -15.5q-8 -2 -14.5 -4t-14.5 -4l-59 -16q-6 -2 -13.5 -4t-15.5 -4q-2 -12 6 -15.5t16 -7.5q33 -20 38 -40.5 t-17 -49.5q-4 -4 -6 -8t-6 -8l-29 -35q-4 -4 -12 -17q-70 -102 -140.5 -201.5t-150.5 -197.5q-49 -59 -91 -123.5t-87 -128.5q-23 -35 -56 -53q6 10 11.5 19t11.5 20l43 80q12 18 22 38q-43 -49 -83 -100t-79.5 -103.5t-82.5 -102.5t-95 -99z" />
<glyph unicode="8" horiz-adv-x="851" d="M-82 207q-10 104 19.5 198.5t103.5 180.5q35 37 80 61q10 8 23.5 13.5t27.5 -1.5q16 -8 15 -19t-3 -24q0 -4 -1 -6t3 -6l52 19q-10 10 -17.5 17t-15.5 17q-53 59 -68.5 126t15.5 139q39 88 110 143q76 59 155 104t179 45q41 0 74 -8q57 -12 95 -35.5t58.5 -55.5 t22.5 -69.5t-10 -74.5q-8 -25 -26.5 -69t-42.5 -90t-50.5 -85t-50.5 -51q20 41 38.5 82t32 83t17.5 86t-6 91q-12 -8 -13.5 -15.5t-1.5 -13.5q-8 -86 -42 -160.5t-83 -146.5q-18 -27 -17 -35t27 -33q61 -59 79 -121.5t-21 -136.5q-35 -68 -76 -130t-111 -111 q-29 -20 -68.5 -43t-83.5 -41.5t-88 -29.5t-81 -11q-35 0 -68.5 9t-66.5 24h33q0 8 -11 12l-6 2q-125 63 -131 170zM66 119q23 -14 28.5 -16.5t22.5 -4.5q-10 6 -20.5 11.5t-30.5 9.5zM127 250q0 -31 14.5 -56.5t39 -42t57 -23.5t69.5 1q31 6 65 22.5t62.5 40t49 53 t26.5 64.5q-51 -45 -104.5 -87t-133.5 -50q41 6 76 35q55 47 86 103.5t27 123.5q2 25 -10.5 44.5t-32.5 29.5q-18 10 -34.5 21.5t-33.5 21.5q-12 6 -19 10t-14 4q-10 0 -30 -20q-27 -27 -54.5 -61.5t-50 -73.5t-37 -80t-18.5 -80zM200.5 802q12.5 -54 59.5 -104 q8 -14 29 -18q-14 25 -24.5 41t-14.5 28.5t-5 22.5t-1 25q4 59 23.5 111.5t66.5 99.5q14 16 27.5 30.5t29.5 30.5q-117 -60 -170 -154q-33 -59 -20.5 -113zM380 844q5 -39 52 -86q18 -18 27 -19q10 0 26 15q70 57 104 127.5t54 148.5q4 23 -25 19q-39 -4 -80.5 -30 t-66.5 -54q-6 6 -4 10t6 9t7 9.5t-1 10.5q-35 -29 -63 -68q-41 -53 -36 -92zM522 1032l78 39q-53 -6 -78 -39z" />
<glyph unicode="9" horiz-adv-x="804" d="M-25 59q-4 8 11 17q10 10 19 18t20 19l79 71q129 119 240 260.5t182 300.5q20 47 36 92.5t16 94.5v19.5t-3 19.5q-6 35 -24.5 45t-56.5 0q-27 -6 -48 -21q-45 -37 -83.5 -76.5t-61.5 -89.5q-4 -12 -8 -28q0 -18 13 -26.5t36 -2.5q39 10 68.5 29.5t62.5 38.5q10 8 27 14 q-29 -53 -80 -89t-96 -87q57 23 95 53.5t79 54.5q0 -2 2 -3t0 -3q-53 -49 -95.5 -104t-101.5 -101q-35 -31 -76 -52t-88 -21q-43 0 -71.5 22.5t-34.5 65.5q-12 66 1 130t42 128q25 53 55.5 104.5t61.5 102.5q51 84 133 129l-74 -88q29 18 54.5 36.5t53.5 34.5q29 20 70 30.5 t88 10.5q49 0 97.5 -14t87 -42t65.5 -70t29 -95q4 -68 -8 -133t-35 -131q-27 -78 -76 -170t-109.5 -183t-125 -173t-124.5 -142q-23 -23 -49 -31t-59 -6q-8 0 -16.5 1t-12.5 8q-12 14 -26.5 23t-36.5 9q-10 0 -12.5 8.5t-0.5 16.5q2 10 8.5 16t12.5 13q49 49 86 104l-6 -6 l-12 -10l-7 -6q-35 -31 -70.5 -63t-70.5 -64q-10 -10 -20.5 -17.5t-26.5 -5.5q-20 4 -25 14zM440 1065q35 10 66 15t65 -5q-33 29 -59 29q-33 0 -72 -39zM449 1026l59 23q-39 0 -59 -23z" />
<glyph unicode=":" horiz-adv-x="317" d="M4 338q0 74 27 135q6 16 29.5 25.5t50.5 9.5t47 -10q10 -6 17.5 -11.5t21.5 2.5q10 4 17 0t7 -14q0 -14 -6 -31q-23 -49 -50.5 -97t-60.5 -93q-16 10 -13 20.5t-3 20.5q-4 4 -10 2t-12 -2q-57 -4 -62 43zM96 676q0 37 6 69l7 68q2 16 11 26.5t34 12.5q29 4 54 5t48 -17 q6 -8 18 -4q23 10 28 1.5t3 -22.5q0 -8 -2 -14t-6 -15q-45 -92 -98 -170q-8 -8 -13 -10q-12 10 -9 22.5t-7 24.5q-2 0 -2 -1t-2 -1l-10 -4q-2 -2 -4 -2q-55 -12 -56 31z" />
<glyph unicode=";" horiz-adv-x="342" d="M4 344q0 59 25 111q10 25 34.5 39t53.5 14q25 0 49 -12q6 -4 11.5 -8.5t15.5 -2.5q39 2 45 -28v-18.5t-5 -18.5q-25 -61 -50 -122.5t-70 -115.5q-6 -12 -19 -10q-4 31 2 62.5t-6 62.5q-10 -4 -20.5 -6t-18.5 -2q-43 0 -47 55zM85 681.5q-1 16.5 3 35.5q2 6 2 11t2 11 l8 43q4 31 15.5 48.5t46.5 21.5q27 4 51.5 4t46.5 -16q9 -8 23 -2q16 8 22 2t6 -19q0 -18 -8 -33q-4 -10 -19.5 -39.5t-34 -61.5t-34.5 -56.5t-27 -24.5q-8 8 -5 16.5t-7 18.5q-18 -4 -37.5 -4t-36.5 14q-16 14 -17 30.5z" />
<glyph unicode="&#x3c;" horiz-adv-x="882" d="M102 446q4 16 16.5 31t26.5 25q14 12 20.5 23.5t-15.5 25.5q-29 20 2 45q16 10 32.5 23.5t42.5 5.5q16 -4 23 6q29 35 64.5 63.5t64.5 63.5q29 33 65.5 60.5t65.5 60.5q23 23 45.5 44t46.5 38q10 8 22.5 14t22.5 -4q18 -16 28.5 -10t22.5 16q14 10 35 14q29 4 48.5 -13 t9.5 -40l-19 -31l6 -4q23 10 45.5 19.5t44.5 19.5q12 4 27 10t25 -6t-3.5 -20t-23.5 -15q-16 -12 -30.5 -24.5t-10.5 -34.5q4 -10 -7 -16.5t-22 -12.5q-98 -49 -191 -103t-192 -102l-22 -12q-23 -12 -4 -31q51 -53 90 -111t94 -108q16 -12 16 -26q-18 -2 -26 11t-29 17 q25 -33 50.5 -61.5t41.5 -67.5q-33 10 -53 25.5t-43 30.5q-23 12 -44.5 26.5t-49.5 32.5q12 -29 31.5 -50.5t21.5 -49.5q-18 4 -29.5 12t-21.5 18q-57 47 -113.5 96.5t-113.5 98.5q-14 12 -20.5 18.5t-14.5 6.5q-4 0 -39 -19q-29 -20 -60 -29z" />
<glyph unicode="=" horiz-adv-x="837" d="M-66 395q-6 16 2.5 35t26.5 23q16 4 20.5 10t6.5 16l12 37q10 27 20.5 35t45.5 8h91t91 -2q88 -4 174 1t174 7h33q-4 -10 -11.5 -13l-17.5 -7l-20 -4q-4 -2 -8.5 -2t-8.5 -4q10 -23 32 -27t42 -8q47 -12 82 -37l-264 -39q59 -10 110 -3t105 1q-12 -4 -25.5 -5t-25.5 -3 q-92 -4 -182.5 -22.5t-182.5 -29.5q-49 -4 -99.5 -11t-99.5 -13q-37 -4 -46 5t3 42q-10 -2 -16 -3t-10 -1q-16 -4 -30.5 -3t-23.5 17zM42 705.5q5 21.5 17 23.5q29 4 35 20.5t12 32.5q6 20 12.5 32.5t15.5 18t23.5 6.5t41.5 1q49 0 98 -1t98 -3q74 -4 146.5 3t144.5 5h21.5 t23.5 -4q-10 -16 -30.5 -17.5t-36.5 -9.5q14 -16 34.5 -23.5t42 -11.5t43 -11t37.5 -24q-49 -14 -101.5 -18t-107.5 -16q41 -6 74 -2t72 6q-23 -16 -51 -17q-92 -10 -181.5 -28.5t-181.5 -30.5q-10 -2 -18.5 -2t-16.5 -2l-73 -8q-8 -2 -16.5 -2t-18.5 -2q-35 -4 -43 6t-4 41 q-20 -2 -36 -4t-32 -5q-12 -2 -24.5 0.5t-18.5 14.5q-6 10 -1 31.5z" />
<glyph unicode="&#x3e;" horiz-adv-x="790" d="M-131 256q-10 14 3 21.5t24 15.5q16 12 30.5 23.5t10.5 35.5q-4 10 7 16.5t21 10.5q98 51 191.5 104.5t191.5 102.5l23 12q20 10 4 31q-51 53 -90 110.5t-95 108.5q-16 12 -16 24q18 2 26.5 -11t28.5 -15q-25 31 -49 60.5t-43 68.5q33 -10 53.5 -25.5t42.5 -29.5 q23 -14 44.5 -28.5t50.5 -33.5q-12 31 -32 52.5t-22 50.5q18 -4 29.5 -12.5t22.5 -18.5q14 -12 28.5 -24.5t28.5 -24.5l113 -97q16 -12 29.5 -24t27.5 -25q14 -12 20.5 -18t14.5 -6q6 0 39 18q16 8 29.5 15.5t29.5 13.5q-4 -18 -16.5 -32t-26.5 -26t-20.5 -22t16.5 -27 q16 -10 14 -21.5t-16 -21.5q-16 -12 -32.5 -24.5t-43.5 -5.5q-16 8 -22 -7q-29 -35 -65 -62.5t-64 -62.5q-29 -35 -66 -61.5t-65 -60.5q-39 -43 -93 -82q-10 -6 -22 -12.5t-23 3.5q-18 16 -28.5 9.5t-22.5 -15.5q-18 -14 -35 -14q-29 -4 -48 13.5t-9 39.5q4 8 9 15.5l9 13.5 l-6 6q-23 -10 -45 -20.5t-45 -20.5q-12 -4 -26.5 -9t-24.5 5z" />
<glyph unicode="?" horiz-adv-x="794" d="M102 172q8 47 19.5 93t28.5 93q14 49 63 45q23 -2 34 -13t15 -46q16 12 23 27.5t32 19.5q23 4 32 0t11 -24q0 -14 -2 -21q-20 -86 -73 -160q-4 -4 -8.5 -10t-14.5 -2q-4 2 -6 8t-6 13q-10 -14 -23.5 -21.5t-36.5 -1.5q-14 4 -18 10t-4 15.5v18.5t-4 17 q-16 -16 -26.5 -33.5t-35.5 -27.5zM142 1161q1 19 22 35q14 8 6 23q-12 16 -4 26t22 21q35 23 83 40t101.5 30.5t106.5 20.5t96 7q90 -6 140.5 -52t48.5 -120l-6 -55q14 -2 17 8t20 14q-25 -82 -70 -147q-80 -111 -174 -212.5t-199 -195.5q-23 -20 -45 -36.5t-45 -35.5 q14 35 41 59.5t43 57.5q-41 -33 -85 -59.5t-91 -54.5q23 35 37 71.5t35 71.5l-31 -21q-6 2 -2 11q35 49 72.5 94t78.5 86q25 23 59 58.5t66.5 76.5t60 83t38.5 75q10 29 -2.5 39t-49.5 4t-80.5 -20.5t-89 -33t-86 -39t-73.5 -40.5q-4 -4 -11.5 -7.5t-17.5 3.5q20 25 46 44 t56 42q-27 -4 -44 -13.5t-33 -19.5q-16 -8 -31 -8q-23 0 -25 32q-2 18 -1 37z" />
<glyph unicode="@" horiz-adv-x="1155" d="M-43 528q-2 102 27.5 196.5t101.5 180.5q6 8 12 15.5t13 17.5v6q-16 -4 -24.5 -15t-23.5 -16l-47 -45q12 31 41 52q47 59 107 98q123 82 259 122t296 21q70 -6 124 -17t111 -59q0 -2 -4 -3t-8 -3t-5 -4t5 -8q90 -80 103.5 -173t-15.5 -194q-16 -70 -55 -128t-92 -105 q-20 -16 -42 -28.5t-50 -16.5q-51 -4 -101.5 21.5t-73.5 68.5q-4 10 -7 19.5t-13 17.5q-23 -14 -53.5 -33.5t-64.5 -37t-67.5 -30t-62.5 -12.5q-51 0 -89 29t-42 76q-4 29 2 54.5t19 53.5q-20 -8 -25.5 -22.5t-22.5 -24.5q-6 10 -1.5 17.5t8.5 15.5q55 104 142 184t202 117 q25 6 45 6q68 0 100 -51q10 -14 20.5 -26.5t8.5 -33.5q-16 14 -33.5 24.5t-40.5 10.5q-45 2 -82 -26q27 4 47.5 7t40.5 -1q43 -6 37 -35q-6 -18 -20.5 -28.5t-32.5 -6.5q-33 10 -57.5 2t-49.5 -22q-59 -33 -93 -80t-56 -101q-2 -6 -3 -11t-1 -11q0 -2 2 -4v-10q2 0 2 -4 q35 0 61.5 11t52.5 25q47 29 94.5 60t86.5 69q23 20 48 21.5t52 5.5q16 4 22.5 -9t0.5 -30q-4 -14 -11.5 -26.5t-15.5 -24.5q-6 -12 -11 -26.5t-1 -32.5q76 39 114 120q18 43 25.5 90.5t-0.5 94.5q-14 96 -135 114q16 6 28 7q10 0 31 -5.5t64 -15.5q-66 61 -156 72 q-72 10 -136.5 -1.5t-125.5 -39.5q-145 -63 -228 -163.5t-118 -232.5q-12 -45 -11.5 -91t25.5 -89q4 -12 19 -22q4 6 3 12t-3.5 13.5t-3.5 13.5t6 12q10 0 10 -4q2 -37 20.5 -61.5t46 -38t61.5 -18.5t66 -3q72 4 125.5 29.5t110.5 64.5q8 -25 7 -31t-17 -18 q-59 -45 -127 -71.5t-146 -36.5q-23 -4 -46 -1t-46 5q29 -16 63.5 -23.5t69.5 -1.5q51 10 99.5 25.5t95.5 38.5q-10 -16 -22.5 -21.5t-24.5 -11.5q-4 -2 -7.5 -3t-7.5 -3l-30 -15q-78 -41 -164 -41q-47 0 -105.5 13.5t-95.5 44.5q-66 47 -97.5 109.5t-33.5 133.5zM829 502 q35 2 51.5 18.5t28.5 32.5q100 131 88 281q-10 -92 -53 -174t-115 -158z" />
<glyph unicode="A" horiz-adv-x="870" d="M-160 39q14 61 38 120.5t48.5 118l49 117t42.5 119.5q-8 4 -18 2t-19.5 -3t-18.5 -1t-17 8q23 47 34 99.5t33 103.5q10 31 41 35q20 4 41 8t43 8q-10 6 -20.5 8t-20.5 2t-20 1t-19 10q25 13 53 13q7 0 15 -1q29 0 39 27q33 70 66.5 137t64.5 139q10 27 22.5 52.5 t28.5 49.5q24 36 42 46q13 7 40 7q11 0 25 -1q6 16 6 31.5v31.5q2 12 -1 23.5t13 21.5q20 10 37 10q14 0 22 -8q20 -16 33 -16q14 0 29 22q2 8 14 9q8 0 17 -9q10 -18 25.5 -19t31.5 -1h14l29 2h14q29 -2 35 -7t4 -34q-4 -117 -11 -229.5t-20 -229.5q-2 -20 -2 -30.5 t4.5 -16.5t14.5 -9t31 -7q4 -6 1 -8.5t-8.5 -3.5t-7.5 -3t4 -8q4 -6 13.5 -9t15.5 -13q-4 -14 -15.5 -19.5t-23.5 -9.5q-27 -4 -35 -19.5t-10 -37.5q-6 -66 -13 -130.5t-14 -129.5q-6 -61 -10 -125t-16 -129q-20 29 -21.5 58.5t-11.5 55.5q-25 -68 -28 -138.5t-17 -141.5 q-14 47 -25.5 97t-15.5 103q-16 -14 -16 -28.5t-7 -26.5q-16 14 -18 31.5t-4 36.5q-16 94 -21.5 189t-9.5 192q-2 23 -5 29.5t-13 6.5q-8 0 -27 -6q-72 -18 -143 -30q-18 -4 -27.5 -12.5t-17.5 -24.5q-23 -47 -47.5 -91t-48.5 -89q-4 -10 -9.5 -21.5t-17.5 -15.5q-4 23 9 44 t11 50q-55 -84 -97 -169t-93 -165l53 199q-100 -109 -166 -248zM385 825q16 -4 35 -1t35 3q12 0 14 7q6 6 4 14q-2 31 -1 61.5t-5 61.5h-10q-16 -31 -35 -60.5t-35 -58.5q-8 -14 -2 -27z" />
<glyph unicode="B" horiz-adv-x="962" d="M-88 51q47 25 89 57.5t91 55.5q31 10 35 45t9 67.5t9 67.5q-18 -29 -25 -62.5t-32 -62.5q-16 18 -13 37.5t7 38.5q29 166 72 331t94 326q6 23 36.5 37.5t53.5 1.5q10 -6 15 -8t16 10q18 23 37 23q16 0 32 -21q6 -8 5 -14t-5 -14q-16 -37 -20 -88l12 24l27 49l12 25 q18 38 60 38q6 0 12 -1q-25 -72 -55.5 -140.5t-57.5 -138.5q29 0 73 21.5t90 55.5t86 74t60 77q-25 -12 -39 -31t-36 -27q-4 10 3 18.5t11 16.5q23 33 29 66q6 18 -2.5 35.5t-26.5 25.5q-37 23 -78 25q-20 1 -41 1l-41 -1q-45 -2 -105.5 -14.5t-124 -30t-122 -36 t-101.5 -34.5q20 23 40 34t32 27q25 35 51 64q-8 12 -18 7t-14 3t4 12q63 41 94 109q10 23 29.5 35t42.5 20q49 16 99 26.5t99 22.5q4 2 10.5 3t10.5 8q-59 0 -115.5 -15.5t-116.5 -25.5q6 23 21.5 32t32.5 15q23 8 58.5 14t75.5 9t76.5 5t59.5 2q47 0 108.5 -9t118 -31.5 t95 -61.5t38.5 -98q-4 -53 -20.5 -101.5t-50.5 -91.5q-57 -68 -124 -129t-138 -114q4 -8 10 -8.5t10 -2.5q16 -2 32.5 -3t33.5 -5q119 -27 143 -86q10 -24 10 -53q0 -41 -20 -92q-49 -121 -158 -201q-43 -33 -88 -57.5t-92 -51.5q-135 -72 -277.5 -111.5t-296.5 -62.5 q16 10 29.5 19.5t28.5 19.5q33 20 57 51zM223 251q-4 -7 4 -18q102 31 193 93q-29 2 -54.5 -11.5t-60.5 -11.5q98 39 182 84t152 119q-35 23 -72 30t-73 7q-31 0 -63 -4t-62 -11q-16 -4 -24.5 -14t-14.5 -25q-23 -57 -47.5 -113.5t-51.5 -111.5q-4 -6 -8 -13z" />
<glyph unicode="C" horiz-adv-x="768" d="M-66 295q-5 29 -5 58q1 33 7 67q12 62 25 123q16 78 55 170t89.5 182t107.5 172t111 141q10 12 21 24.5t28 20.5q4 -12 -6.5 -20t-6.5 -23q53 43 101.5 87t111.5 73q0 -16 -12 -26.5t-16 -26.5q55 -12 76 -68q18 20 25 40t18 40q18 37 38 37q12 0 33 -12q10 -6 16.5 -4 t16.5 6q27 14 55.5 15t57.5 3q33 0 20 -28q-12 -31 -23.5 -61t-25.5 -58q-47 -88 -88 -176t-82 -181q-10 -23 -21.5 -43t-27.5 -39q-4 29 4 49.5t6 43.5q-12 -6 -16 -14.5t-9 -16.5q-27 -55 -52 -109.5t-52 -107.5q-12 -29 -26.5 -55.5t-38.5 -55.5q14 63 32.5 119.5 t22.5 114.5q-12 2 -16.5 -8.5t-20.5 -14.5q10 74 26.5 144.5t20.5 142.5q-18 4 -29.5 -3t-21.5 -16q-115 -84 -185.5 -192.5t-107.5 -239.5q-5 -21 -5 -43q0 -17 3 -34q12 -66 59 -86.5t105 -20.5q41 0 79 10.5t74 26.5q29 14 57.5 29.5t59.5 29.5q-31 -51 -74 -93t-86 -91 q49 16 88 43t80 53q4 -27 -2 -46t-16 -36l-37 -65q12 -6 22.5 2t22.5 6q-37 -61 -152.5 -100t-281.5 -48q39 -10 73.5 -13t71.5 -7q-29 -10 -54.5 -13t-49.5 -3q-104 0 -180 61.5t-93 163.5z" />
<glyph unicode="D" horiz-adv-x="870" d="M-102 61q41 27 77.5 54.5t81.5 48.5q31 10 35 45t10.5 66.5t10.5 66.5q-20 -27 -27.5 -61.5t-36.5 -65.5q-6 29 -4 50.5t6 43.5q29 164 71 323t91 318q6 20 25.5 31.5t40.5 11.5q16 0 28 -6q18 -10 29 6q14 25 29 25q10 0 22 -12q10 -10 24.5 -6t28.5 -5 q-16 -47 -32.5 -93t-32.5 -93q16 4 18 12t6 17l62 141q6 10 12 23.5t31 13.5q-10 -49 -31.5 -93t-38.5 -89q-18 -47 -37.5 -92.5t-38.5 -92.5q-35 -94 -72.5 -187t-78.5 -186q88 59 153.5 129t124.5 152q-23 -4 -32 -17.5t-27 -17.5q10 23 24.5 41.5t28.5 34.5 q66 80 126.5 169t80.5 194q3 17 3 32q-1 42 -21 74q-28 43 -86 61q-35 10 -70 10q-4 0 -8 1l-62 -4q-141 -18 -276 -78q-16 -8 -32.5 -15.5t-39.5 -11.5q10 16 24.5 22.5t28.5 14.5q23 10 34.5 26.5t19.5 39.5q4 10 -2 11t-13 5q-6 -12 -18 -15.5t-23 -7.5q18 23 39 25 q16 12 30.5 26.5t18.5 34.5q12 43 44 70t73 44t86 25.5t84 12.5q-22 2 -45 2q-57 0 -111 -14q-76 -20 -155 -41q31 23 70.5 41t81.5 31.5t85 20.5t82 7q55 0 113.5 -12.5t111 -38t94.5 -65.5t62 -95q31 -86 31 -167q0 -27 -4 -55q-14 -108 -78 -216q-100 -172 -231 -314.5 t-295 -263.5q-63 -47 -134 -79.5t-147 -59.5q-29 -8 -55.5 -19.5t-61.5 -11.5l113 78q-41 0 -75.5 -13t-73.5 -18z" />
<glyph unicode="E" d="M-176 25q14 14 28.5 20t30.5 12q10 4 18.5 9.5t12.5 15.5t5 15t-11 14q-23 12 -24 22t16 27q20 20 14 45q-1 5 -1 10q0 36 42 45q45 10 58.5 47t19.5 76l16 70q2 10 4 17t4 17q2 4 2 11l7 24q0 2 1 4t1 6q-14 6 -24.5 4.5t-20.5 -1.5h-6q-41 0 -44 28q-4 20 9.5 40 t31.5 24q20 2 38 9t36 15q12 4 12 15q-12 6 -24.5 3t-24.5 -1q-35 8 -20 41q16 36 57 36h2q29 2 41 17.5t21 40.5q10 41 24 79t27 79q8 23 26.5 36t40.5 13q16 0 31 -9q18 -10 27 7q14 25 30 24q10 0 23 -12q10 -12 24.5 -6t28.5 -4l-76 -191q14 0 17.5 7.5t7.5 13.5l68 149 q4 6 7 13.5t7 13.5q10 18 27 12q6 -4 5 -10t-5 -12q-14 -35 -28.5 -68t-31.5 -68q-8 -25 -22 -51q16 -1 32 -1q60 0 120 12q74 16 155 26q-29 -27 -60.5 -33t-62.5 -22q22 -4 44 -4q24 0 47 5t48 5q22 0 45 -4q-37 -35 -70.5 -63.5t-76.5 -43.5q-66 -23 -132.5 -42 t-136.5 -31q-45 -8 -63 -54q-23 -53 -46.5 -108t-49.5 -115q137 29 271 52.5t276 27.5q-43 -35 -87 -52.5t-85 -37.5q13 -1 25 -1q38 0 75 9q49 12 106 14q-31 -25 -59.5 -40t-56.5 -31q4 -6 9 -6t10 2t10 3t10 -3q-27 -20 -95.5 -49t-156.5 -60t-186.5 -60.5t-187.5 -51.5 q-89 -20 -159 -32q-43 -7 -70 -8q-17 0 -28 3zM68 309q18 18 12 43q-20 -14 -12 -43zM184 1130q10 35 20.5 71t20.5 71q4 16 7.5 24.5t9.5 13.5t15 6t28 3h21t22 8q-12 8 -25.5 6t-26.5 0q-8 2 -17 2t-7 15q0 20 20 26h11q96 2 190 14q80 10 162 9h29q41 0 79.5 -1t79.5 -3 q53 -4 107 -5h35q36 0 71 1h19.5t21.5 -15l-231 -84q39 -9 75 -9h7h26q26 0 54 -1q-20 -14 -80 -38.5t-139.5 -53.5t-171 -56.5t-174.5 -50t-149.5 -37t-94.5 -14.5q53 20 101 35.5t95 38.5q-35 0 -66.5 -6t-66.5 -15q-6 0 -12 -2l-12 -4q-43 -10 -53.5 0.5t-0.5 50.5z" />
<glyph unicode="F" horiz-adv-x="831" d="M-33 561q-4 23 8.5 42.5t34.5 23.5q25 4 44.5 14t39.5 27h-24.5t-24.5 2q-37 2 -20 39q16 36 55 36h2q29 2 42 16.5t21 39.5q10 41 24.5 80t27.5 80q8 23 25.5 36t39.5 13q23 0 45 -17q10 6 14.5 13.5t8.5 13.5q8 10 18 12t19 -6q12 -12 28 -12q14 0 33 6 q-14 -55 -36.5 -103.5t-26.5 -101.5q4 10 9 20.5t9 20.5l39 82q10 23 20.5 43t22.5 43q10 10 20 4q8 -2 4 -16l-61 -135q-4 -14 -12 -27.5t-6 -32.5h18q66 1 130 13q72 14 147 22q-25 -23 -55.5 -29t-63.5 -22q24 -4 46 -4t43 4q28 5 56 5q14 0 27 -1q8 -10 0 -14 q-35 -35 -73 -64t-87 -41q-57 -14 -112.5 -32.5t-114.5 -26.5q-27 -4 -40.5 -18.5t-21.5 -37.5q-4 -12 -16 -44.5t-28.5 -73.5t-35 -85t-36 -82t-32 -65.5t-22.5 -34.5q10 35 18.5 65t18.5 60l-6 2q-4 -10 -9 -21t-9 -24l-35 -86q-23 -57 -48.5 -111.5t-60.5 -103.5 q4 98 27.5 191.5t36.5 191.5q-31 -66 -53.5 -132t-47.5 -132q8 115 38 225.5t52 220.5q-12 8 -22 5.5t-21 -2.5q-49 -2 -51 26zM174 1108q6 29 14.5 58.5t16.5 58.5q6 27 11 42t14.5 23t25.5 12.5t45 10.5q6 2 16 2l35 6q4 0 8.5 1t8.5 1q16 4 30.5 6t30.5 6q-30 3 -60.5 3 t-60.5 -3h-8l-14 -2h-8q-10 0 -22.5 -1t-12.5 14q0 14 10 24q12 8 25 6q16 0 33.5 1t33.5 3l68 6q102 8 202 12q36 2 73 2q65 0 130 -5q53 -4 107 -5h35q36 0 71 1q8 0 16.5 -0.5t18.5 -14.5q-53 -25 -109.5 -41t-111.5 -43q35 -9 70 -9h7h15q30 0 59 -3 q-20 -14 -80.5 -38.5t-139.5 -52.5t-169 -55.5t-173 -50t-148.5 -37t-98.5 -14.5q57 18 112.5 36t109.5 44l-86 -12t-84 -19l-31 -6q-41 -6 -35 33z" />
<glyph unicode="G" horiz-adv-x="847" d="M-57 393q-1 13 -1 27q0 78 20 154q24 88 65 174q66 147 166 276t215 244l27.5 27.5t35.5 19.5q-16 -20 -32.5 -40t-28.5 -42q61 49 123.5 100t148.5 76q-18 -29 -43 -47.5t-43 -46.5q20 -10 36.5 -24.5t26.5 -43.5q16 23 23.5 41.5t17.5 34.5q10 23 17.5 32t19.5 9 q6 0 15.5 -4t23.5 -10q4 -2 7 -4.5t8 2.5q18 16 42.5 19t45.5 24q25 25 43 30.5t47 3.5q-23 -53 -41.5 -108t-46.5 -109q-37 -66 -70 -134t-61 -138q-6 -12 -12 -25.5t-29 -13.5q-2 10 0 18.5t5 16.5t4 17t-3 20q-35 -45 -63.5 -92.5t-73.5 -88.5q-4 29 7 52.5t13 52.5 q-29 -35 -44 -72t-36 -71q-10 2 -8 6t2 8l6 18q16 51 28.5 102.5t24.5 102.5q1 7 1 12q0 29 -35 29q-55 -4 -95 -39q-123 -106 -198 -244q-33 -59 -48 -119q-8 -33 -8 -69q0 -27 5 -55q10 -70 67 -99l8 -4t8 -6v-6q-12 -14 -26 -8t-27 0q25 -23 60 -23q37 0 71 29 q41 37 76 80t59 92q-31 4 -58.5 -5t-53.5 -15q-16 -4 -27.5 -6.5t-19.5 -2.5q-23 0 -26 15.5t3 52.5q4 29 22.5 35t41.5 10q-10 12 -24.5 10t-20.5 11q4 27 20 35t41 12q98 8 192.5 15t192.5 21h10q18 0 40 1.5t26 -15.5q6 -23 -14.5 -27t-34.5 -14q-10 -8 -20.5 -13 t-22.5 -13l28 -11q-12 -8 -22 -14q-43 -14 -63.5 -44t-32.5 -69q-45 -135 -102.5 -265t-110.5 -263q-14 -35 -30.5 -66.5t-39.5 -60.5q10 66 23.5 124t29.5 124q-14 -23 -23.5 -46.5t-18.5 -47t-21.5 -45t-34.5 -41.5q8 70 13 133t18 131q-35 -23 -57.5 -47.5t-55.5 -38.5 q10 -10 18.5 -3t16.5 3q-35 -49 -82 -49q-23 0 -45 8q-117 41 -167 123t-54 194z" />
<glyph unicode="H" horiz-adv-x="901" d="M-37 154q14 106 39 202.5t51 192.5q-12 10 -24.5 7t-22.5 -3q-25 -2 -35 7t-6 34q2 25 17.5 38t37.5 23q12 4 25.5 9.5t26.5 13.5q-10 0 -20.5 -1t-20.5 1q-43 4 -27 41q6 16 12.5 30.5t16.5 28.5q6 16 19.5 18.5t29.5 4.5q33 4 39 10t14 37q35 133 79 262t81 262 q2 4 2 6t2 4l6 23q4 8 4 10q10 18 14.5 19.5t20.5 -17.5q10 -10 19.5 -8t19.5 0q25 -2 30 -7t3 -28q-4 -16 -5 -30.5t-3 -28.5q29 33 43 80q4 25 18 33t37 8q6 2 13 2h13q25 -4 45.5 1t34.5 34q6 -20 2 -37t-10 -33q-10 -33 -21.5 -63.5t-25.5 -61.5q-43 -100 -83 -201.5 t-81 -204.5q-4 -10 -7 -17t-1 -17q6 -10 14.5 -8.5t18.5 1.5q29 2 57.5 4.5t56.5 4.5q35 4 43.5 9t16.5 38q37 117 72.5 230.5t76.5 228.5q8 20 11 28q6 29 41 33h4l8 2h4q47 4 55 -5t0 -54q-8 -27 -2 -47q10 23 20.5 45t20.5 45q10 29 20.5 35t39.5 10h26q23 -4 41.5 0.5 t28.5 31.5q14 -4 12 -13t-4 -15q-14 -66 -43 -131q-39 -96 -78 -190.5t-78 -192.5q-4 -12 -10 -25.5t-6 -30.5q8 -6 19.5 -6h21.5t20.5 -3t16.5 -13q-6 -18 -17.5 -28.5t-27 -15.5t-32.5 -9t-32 -13q16 -12 31.5 -6t30.5 -4q-2 -16 -12.5 -22.5t-22.5 -10.5 q-10 -6 -21.5 -10t-21.5 -8q-8 -4 -15.5 -7t-5.5 -14q2 -8 8.5 -10t12.5 -4q18 0 33 -10q0 -10 -6.5 -11t-10.5 -3q-43 -4 -62.5 -31t-31.5 -60q-33 -90 -68.5 -176t-76.5 -172q-6 -18 -19 -37q2 33 13.5 63t15.5 62q-39 -88 -75 -176t-91 -168q4 98 27.5 191.5t35.5 189.5 q-29 -66 -52 -131t-48 -131q14 131 46 259t71 257q-12 10 -24.5 7t-22.5 -5q-35 -6 -70 -14t-70 -12q-47 -8 -65 -56q-27 -80 -60.5 -156.5t-68.5 -154.5q0 -2 -1 -2t-1 -2l-6 -10q0 -2 -2 -4q-2 29 8 52t10 48q-41 -63 -69.5 -131t-67.5 -133q8 53 15 108.5t18 116.5 q-23 -27 -32 -52.5t-34 -49.5zM438 633q18 -2 38 -1t40 15q-23 4 -41.5 -3t-36.5 -11z" />
<glyph unicode="I" horiz-adv-x="370" d="M-88 139q63 317 153.5 623.5t188.5 615.5q4 10 8 21.5t21 17.5q7 -34 42 -34q5 0 11 1q16 4 23.5 -5t2.5 -25q-6 -31 -6 -64q14 18 25.5 40t15.5 44q6 20 18.5 27.5t30.5 9.5h23q27 -4 51.5 0t36.5 37q10 -10 8 -16.5t-2 -14.5q-10 -43 -26.5 -85t-32.5 -83 q-68 -158 -131.5 -315.5t-122.5 -317.5q-43 -115 -90 -225t-97 -223l-10 -10q8 29 15.5 55.5t15.5 52.5q-43 -59 -71.5 -126.5t-67.5 -131.5q8 53 15 107.5t15 113.5q-23 -23 -30.5 -48t-32.5 -42z" />
<glyph unicode="J" horiz-adv-x="708" d="M-94 325q6 105 41 212q4 14 5 29.5t17 31.5q5 -26 5 -51q0 -13 -1 -25q-1 -7 -1 -14q0 -30 14 -59q8 47 13 92t11 90q14 -16 14.5 -34.5t0.5 -35.5q-1 -14 -1 -27q0 -27 3 -53q4 -39 12 -80q6 -25 21.5 -55.5t45.5 -30.5q16 0 30 20.5t18 35.5q35 100 75.5 197.5 t67.5 199.5q27 98 55.5 194.5t59.5 194.5q2 4 2 17q-29 2 -56.5 -6.5t-56.5 -12.5q-29 -6 -36 -2t-13 31q0 4 -2 8l-4 8q-14 16 -8 28.5t20 22.5q6 4 14.5 7.5t12.5 13.5q-18 10 -19.5 25.5t2.5 33.5q6 29 11.5 44.5t13.5 23.5t24.5 9t44.5 1q70 3 140 3h34q87 -1 173 -1 q25 0 44 4t27 31q10 0 12.5 -5t2.5 -11.5t2 -11.5t10 -5h41q25 2 49 3t49 1q-6 -10 -10 -16t-15.5 -11.5t-34 -10.5t-63.5 -15q10 -10 24.5 -12t29.5 -2q12 -2 24 -3t23 -10q0 -6 -6.5 -11t-11.5 -9t-6 -9t7 -16q4 -4 -5 -8t-15 -8q-66 -27 -127 -35q-35 -6 -49 -39 q-59 -152 -120 -300t-118 -302q-43 -111 -89 -220.5t-97 -223.5q-2 35 10 62.5t14 62.5q-43 -72 -71.5 -141.5t-63.5 -139.5q-6 16 -1 31.5t-3 31.5q-14 -18 -26.5 -34.5t-26.5 -32.5q-16 -18 -44 -42t-55 -24q-16 0 -36 21q-68 68 -74 160q-6 68 -6 135q0 40 2 79z" />
<glyph unicode="K" horiz-adv-x="985" d="M-68 393q16 20 28.5 36.5t27.5 33.5q10 14 21 27.5t22 25.5q10 14 11 24.5t-17 20.5q-4 4 -10.5 7t-10.5 7q-16 14 -20 37t6 43q12 14 26 11q8 -4 15.5 -10.5t21.5 -4.5q-12 20 -28.5 38t-10.5 44q10 35 29 64q10 12 22.5 13t22.5 11q12 10 23.5 1t27.5 -11 q43 154 92.5 304.5t102.5 303.5q12 -20 27.5 -29.5t37.5 -5.5q14 4 20.5 -5t4.5 -23q-5 -18 -5 -37q0 -15 3 -31q10 23 20.5 42.5t14.5 41.5q6 23 19 30t34 9h22q12 0 25.5 -1t24 1t19.5 10.5t11 26.5q14 -6 14 -14.5t-3 -14.5q-8 -41 -21.5 -77.5t-30.5 -75.5 q-29 -66 -55.5 -132.5t-52.5 -132.5q-4 -10 -10.5 -22t-1.5 -25q6 -2 9 1t7 8q45 63 95 121.5t104 117.5q82 96 157 189q16 18 26.5 29.5t27.5 11.5q12 0 41 -17q12 -8 18 -6q12 8 21.5 6t17.5 -7t17 -9t20 -2q6 2 8 -6.5t-2 -14.5q-6 -8 -13.5 -16t-13.5 -17 q-10 -10 -20 -19t-21 -30q23 10 34 23.5t24 23.5q20 16 41 17q16 0 29.5 -10.5t17.5 -30.5q4 -14 -9 -23q-53 -53 -104 -103t-104 -101q-8 -8 -15 -13l-26 -22q-4 -4 -7.5 -6t-7.5 -7q-104 -96 -206.5 -189t-206.5 -187l-25.5 -25.5t-9.5 -18t6 -17.5t20 -25 q53 -59 106.5 -120t102.5 -126q4 -4 10.5 -9.5t4.5 -15.5q16 -4 25 -14t20 -21q-33 6 -45 35q-12 0 -21.5 8.5t-25.5 12.5q47 -74 107 -132.5t108 -129.5l-209 129q10 -29 31.5 -47.5t31.5 -45.5q-106 63 -206.5 135t-200.5 152q-47 -94 -81 -187t-93 -177q6 37 13 71.5 t11 71.5q-35 -63 -59.5 -129t-55.5 -131q-8 25 0.5 48.5t12.5 45.5q4 25 10 49.5t10 48.5q4 25 8 49.5t9 53.5q-20 -14 -26.5 -34.5t-29.5 -37.5q14 80 31.5 158t40.5 155q-31 -10 -53.5 -29.5t-55.5 -23.5z" />
<glyph unicode="L" horiz-adv-x="772" d="M-125 229.5q8 26.5 37 30.5q20 0 39 14q-31 18 -41 53q-4 13 -4 27q0 21 10 41q10 23 43 23q33 4 41 9t16 38q39 152 82 300t86 300q6 18 11.5 36.5t11.5 35.5l45 145q6 18 11 35.5t11 36.5q6 16 11.5 33.5t25.5 31.5q10 -36 45 -36q5 0 11 1q16 4 22 -5t4 -25t-6 -32.5 t0 -37.5q14 23 24.5 44.5t16.5 45.5q6 20 18.5 27.5t30.5 9.5h17q25 0 38 1t22 4t17.5 9.5t20.5 18.5q6 -6 4 -12.5t-2 -14.5q-10 -41 -23.5 -79t-29.5 -74q-66 -154 -126.5 -307.5t-121.5 -307.5q-18 -47 -36.5 -92t-35.5 -92q-8 -23 -4 -28t29 -1q80 8 160.5 8t160.5 5h70 q-35 -23 -70 -30t-69 -24q24 -4 48 -4t47 4q46 8 99 13q-53 -35 -105.5 -48t-101.5 -36q18 -6 37 0.5t41 -0.5q-53 -20 -108.5 -27.5t-108.5 -36.5q13 -1 27 -1q23 0 44.5 4t43.5 4q13 0 26 -1q-16 -16 -29.5 -20t-27.5 -8q-74 -18 -146.5 -38t-148.5 -38q-35 -8 -49 -39 q-8 -20 -19.5 -38.5t-31.5 -35.5l18 82q-33 -39 -48 -83t-44 -85q4 33 4 63.5t2 61.5q2 16 -3 27.5t-27 5.5q-6 -4 -11 0q-10 2 -20 1t-15 11q-4 10 7.5 14.5t11.5 14.5q-6 4 -14.5 8t-12.5 10q-16 23 -8 49.5z" />
<glyph unicode="M" horiz-adv-x="1048" d="M-92 125q12 59 21.5 110.5t23.5 100.5q31 119 63.5 234.5t65.5 234.5q37 139 82 275.5t84 277.5q2 8 5 16t7 17q2 8 6 15t13 9q10 2 11 -5t3 -15q4 -12 13 -11.5t18 0.5q33 -2 38 -7t0 -36q-2 -16 -5 -31.5t-7 -31.5l6 -4q10 27 22.5 51.5t22.5 50.5q10 33 45 33 q6 2 13.5 2h13.5q12 0 25.5 -1t25 2t19.5 11.5t12 28.5l10 -14q-23 -35 -23.5 -72t-2.5 -72q-8 -135 -14.5 -270t-12.5 -270q0 -4 1 -7.5t11 -5.5q35 66 69 133.5t69 137.5q35 68 72.5 132t82.5 124q-31 -66 -60.5 -131.5t-60.5 -137.5q16 10 22.5 20.5t10.5 20.5 q41 78 80 155t80 155q8 14 14 25t19 22q10 6 17 11t17 5t25 -16q14 -14 39 -15q23 0 39 9q23 10 46 17t48 3q29 -4 49.5 3t34.5 40q8 -20 5 -33.5t-7 -27.5q-8 -29 -18.5 -57.5t-22.5 -57.5q-72 -166 -138.5 -334t-131.5 -338q-41 -104 -83 -209.5t-96 -216.5 q-4 31 6.5 54.5t12.5 52.5q-43 -72 -71.5 -143.5t-69.5 -137.5q2 14 3 26.5t5 26.5l12 105q4 12 5 25.5t3 25.5q-23 -18 -32 -43t-33 -47q35 195 85 379t101 370q-35 -35 -58.5 -74.5t-47.5 -78.5q-25 -41 -49.5 -82t-47.5 -82q-25 -41 -48 -80t-46 -80t-47.5 -81t-54.5 -78 q3 111 3 220v55v25q0 124 9 250q-16 -55 -21.5 -111t-15.5 -112q-4 70 -7 140.5t-7 148.5q-27 -47 -34 -90t-26 -84q-16 -41 -30.5 -83t-32.5 -83q-4 -10 -9 -20.5t-9 -20.5l-31 -84q-23 -51 -45.5 -101t-46.5 -100q-4 23 5 44.5t9 43.5q-41 -66 -69.5 -135t-67.5 -135 q6 53 13 106.5t15 112.5q-23 -25 -32 -51.5t-35 -48.5z" />
<glyph unicode="N" d="M-92 125q10 57 20.5 107.5t22.5 99.5q37 137 73.5 273t75.5 274q37 125 75 247.5t77 245.5q6 23 18 37q16 16 21 0q2 -23 13 -24t26 -1q25 0 31 -5t1 -29q-2 -18 -5 -37t-7 -37l8 -2l23 49q4 12 9 24.5t9 24.5q8 29 25.5 34t44.5 5q27 -2 51.5 1t40.5 44q6 -33 -1 -56.5 t-15 -45.5q-4 -16 -4 -27.5t24 -15.5q14 -2 17.5 -11.5t3.5 -19.5q0 -20 -1 -39.5t-3 -40.5q-12 -150 -26.5 -300t-20.5 -304q12 10 15 20.5t7 20.5q35 104 61.5 210.5t61.5 211.5q25 72 46.5 145.5t43.5 145.5q6 16 11 34.5t28 34.5q7 -36 44 -36q5 0 11 1q16 4 22.5 -5 t4.5 -25q-4 -16 -8 -32.5t0 -37.5q31 43 43 90q8 35 45 35q6 2 20 2q29 -2 54.5 0t39.5 37q10 -10 8.5 -17.5t-3.5 -13.5q-10 -43 -25.5 -83t-32.5 -81q-66 -158 -129 -315.5t-125 -316.5q-43 -115 -90 -225.5t-94 -223.5q-4 -8 -10 -10q2 29 11 53.5t13 52.5 q-41 -61 -69.5 -128.5t-63.5 -133.5q4 51 12.5 101.5t8.5 109.5q-20 -23 -27.5 -44t-26.5 -38q-6 16 -2 29.5t9 25.5q10 41 11 82v27q0 27 -1 55q-4 72 -6 142.5t-7 142.5q-10 -69 -10 -138q0 -25 1 -49q2 -31 2 -63q0 -62 -7 -125q-25 147 -46 294t-28 300 q-18 -8 -22 -21.5t-8 -23.5q-47 -123 -93.5 -242.5t-99.5 -240.5q-16 -35 -31.5 -70t-33.5 -70q-4 23 5 43.5t11 42.5q-43 -66 -71.5 -135t-67.5 -135q6 53 13 106.5t15 114.5q-23 -27 -32 -53.5t-35 -48.5z" />
<glyph unicode="O" horiz-adv-x="817" d="M0 371q2 74 25.5 175t60.5 206.5t82 202t90 157.5q29 41 59 41q12 0 37 -10q12 -6 18.5 -4t16.5 10q18 20 29 20q14 0 22 -26q4 -14 17 -15q35 -12 39 -23t-17 -44q-35 -59 -64.5 -120.5t-62.5 -121.5q-4 -12 -4 -18q16 6 19.5 19.5t11.5 23.5q20 27 31 51q6 -10 2 -18.5 t-9 -14.5q-61 -109 -102 -223.5t-74 -230.5q-8 -23 -8 -47q0 -21 6 -42q10 -31 31 -30q14 0 34.5 17.5t41 41t38 47t25.5 35.5q82 135 143.5 274.5t96.5 290.5q6 25 7 50.5t-5 50.5q-20 94 -123 112q-21 4 -42 4q-33 0 -66 -10q-72 -16 -135.5 -44t-123.5 -71q-8 -4 -16 -12 t-18 -4q8 8 15 15.5t15 13.5l60 59q8 8 15 14.5t15 14.5q31 29 69 47t75 41q-53 -8 -98.5 -32.5t-96.5 -45.5q-4 14 4.5 19.5t14.5 9.5q45 16 45 63q0 18 10 27.5t25 17.5q35 14 61 29q78 42 158 54q41 6 82 7q40 0 80 -6q68 -10 118.5 -45.5t75.5 -101.5q29 -78 29 -156 t-19 -158q-33 -141 -90 -270t-129 -256q-2 -2 -4 -3t-6 -5q-2 23 9 40t7 40q-20 -25 -37.5 -52.5t-29.5 -56.5q-33 -74 -84 -138t-107 -124q-12 -16 -26 -24q-53 -45 -117 -46q-41 0 -78 23t-57 68q-29 62 -43 130q-8 38 -9 79q0 30 5 61q8 41 14 84t12 84 q-14 -20 -27.5 -57t-23.5 -84.5t-16 -101.5t-9 -113q-16 34 -19 68q-2 20 -2 41q0 13 1 26zM274 119h11q49 0 77 24q35 35 67 74t56 82q-53 -47 -99 -98t-112 -82zM326 750q14 16 20 26.5t2 22.5q-10 -8 -14 -19.5t-8 -29.5z" />
<glyph unicode="P" horiz-adv-x="849" d="M47 500q8 18 25 24q4 4 8 5t8 6l31 20q4 4 7 5t7 5q41 25 47 68q20 80 43 159.5t41 159.5q8 31 26.5 45.5t47.5 20.5q12 4 23.5 5t13.5 -22q2 -10 9 -9t13 7q4 8 7.5 16.5t9.5 16.5q10 12 22.5 12t16.5 -16q4 -12 7 -23.5t-1 -27.5q-10 -29 -16.5 -57.5t-16.5 -65.5 q16 23 26.5 48.5t18.5 51.5q9 34 29 54q16 16 49 17q7 0 14 -1q-23 -72 -51.5 -139.5t-54.5 -136.5q35 6 78 28.5t82.5 54t70.5 66.5t41 66q-18 -14 -32.5 -31t-34.5 -27q-6 10 0 16.5t10 14.5q4 10 11 19.5t11 19.5q10 26 10 45q0 12 -3 20q-9 24 -50 37q-25 10 -50.5 13.5 t-51.5 3.5q-45 0 -103.5 -10.5t-120 -26t-118.5 -32.5t-101 -32q-8 -4 -17 -7t-26 -9q16 23 37 34t33 27q10 16 23.5 31.5t27.5 32.5q-6 12 -15 6t-13 -2q-8 10 -4 14q66 43 100 117q10 20 26.5 30.5t36.5 18.5q33 12 66 20.5t65 14.5l52 12q10 2 26 6q4 0 25 7q-12 1 -24 1 q-49 1 -97 -13q-58 -16 -119 -27q6 23 18.5 31t28.5 14q23 10 60 16t76.5 9t77.5 5t63 2q43 0 89 -5t91 -18t84 -35.5t68 -59.5q20 -27 24 -53.5t0 -57.5q-6 -53 -25.5 -101t-48.5 -93q-84 -131 -199.5 -221.5t-262.5 -143.5q20 18 43.5 33.5t40.5 38.5q-31 -16 -62 -30.5 t-61 -31.5q-10 -6 -14.5 -17t-8.5 -22q-39 -86 -77 -172t-74 -174q-6 -14 -19 -31q-4 10 -1 21.5t7 21.5t6.5 21.5t2.5 21.5q-41 -66 -70 -135t-70 -135l31 221q-23 -27 -33 -53.5t-35 -48.5q10 55 20.5 104.5t20.5 98.5q4 16 6 26l15 49q2 10 6 27q10 33 6 39t-37 14 q10 16 29.5 22.5t30.5 26.5q-33 2 -56.5 -13t-52.5 -19z" />
<glyph unicode="Q" horiz-adv-x="831" d="M-71.5 87.5q3.5 23.5 34.5 43.5q6 4 4 6l-4 4q-16 18 -6 26.5t25 14.5q23 10 49 15.5t51 11.5q16 4 33.5 6t36.5 6q-4 14 -10.5 21.5t-12.5 17.5q-29 43 -40 92q-6 26 -6 53q0 24 5 50q4 37 8 73.5t8 73.5q-37 -86 -59 -175q-19 -75 -19 -156q0 -14 1 -29 q-16 29 -19.5 57.5t-3.5 56.5q4 127 43 257t90 245q23 51 43.5 103.5t50.5 101.5l37 55q25 33 56 33q18 0 34 -8q14 -6 20.5 -4t16.5 12q18 18 31 18q14 0 20 -26q4 -10 7.5 -11.5t9.5 -3.5q35 -10 38 -22t-16 -45q-72 -123 -129 -262q16 25 33 51.5t35 58.5q0 -25 -8 -40 t-17 -29q-47 -86 -75.5 -178.5t-51.5 -184.5q-4 -16 -5 -30.5t1 -30.5q4 -39 29 -39q14 0 35 12q12 6 28.5 21.5t33 34t30.5 36t20 29.5q70 121 122 248t79 262q6 33 0 63q-16 109 -129 125q-20 3 -40 3q-31 0 -64 -7q-70 -16 -134.5 -43.5t-123.5 -70.5q-8 -6 -15.5 -13.5 t-23.5 -3.5q63 66 133.5 121t157.5 90q-59 -8 -110.5 -35.5t-109.5 -50.5q2 6 1 9t1 5q27 16 47.5 38t18.5 57q0 8 23.5 22t54 29.5t59.5 27t37 13.5q43 12 85 19t83 7t83 -9t79 -28.5t64.5 -49t41.5 -72.5q27 -72 27 -145.5t-17 -149.5q-72 -312 -258 -570q-33 -47 -73 -77 q10 39 31.5 65.5t29.5 56.5q-49 -43 -96 -90t-111 -88q20 -2 40 -2h38.5t35.5 -3t32 -13q-4 -12 -14.5 -14.5t-20.5 -12.5q29 -6 56.5 -4t60.5 2q-27 -25 -56.5 -37t-61.5 -20t-63.5 -16.5t-62.5 -26.5l180 24q-12 -16 -27.5 -19t-31.5 -7q-88 -18 -173 -45t-171 -49 q-86 -25 -168 -43q-33 -8 -44.5 2t-6.5 43q0 4 2 6t0 4q-16 27 -12.5 50.5zM233 350q10 -27 16.5 -38t18.5 -11q6 0 15.5 4t23.5 10q-23 8 -40.5 14.5t-33.5 20.5z" />
<glyph unicode="R" horiz-adv-x="923" d="M41 532q16 20 27.5 28.5t52.5 25.5q27 10 40 25.5t19 43.5q10 39 20.5 77t20.5 77l43 154q4 10 5 22t16 16q16 6 33.5 13.5t35.5 7.5q8 0 10.5 -4t3.5 -9t3 -10.5t8 -7.5q14 4 17 15.5t10 21.5q6 18 24 14q14 0 19 -20q8 -27 2 -57q-6 -20 -11.5 -41t-9.5 -43 q14 16 20.5 35.5t14.5 39.5q10 23 13 34t10.5 17.5t22.5 9.5t48 9q-25 -72 -52.5 -140.5t-53.5 -140.5q35 8 75.5 31t78.5 51.5t69 62.5t45 62q-23 -6 -34 -23.5t-34 -23.5q-2 12 6.5 20.5t12.5 18.5q18 29 24 57q4 29 -2 41.5t-30 26.5q-37 21 -76 23q-22 1 -44 1 q-18 0 -36 -1q-41 -2 -81 -10.5t-79 -18.5q-35 -10 -70.5 -19.5t-70.5 -19.5t-71 -19.5t-73 -19.5q72 47 113 119q-6 8 -16 5t-17 3q6 10 9 12q59 41 90 105q10 25 30.5 38t44.5 21q47 16 96.5 26.5t96.5 22.5l20 6q-29 4 -55 -2t-55 -10t-56.5 -13t-58.5 -9q4 20 17.5 28.5 t29.5 14.5q20 10 57 16t78 9t80 5t62 2q53 0 105 -7t106 -27q32 -8 63 -31q45 -31 67 -72q16 -28 16 -65q0 -16 -3 -35q-18 -98 -69.5 -183t-124 -154t-159.5 -123t-173 -93q23 -35 45 -67.5t45 -67.5q8 -10 16 -21.5t17 -23.5q25 -35 27.5 -43.5t0.5 -18.5q-4 -23 11.5 -38 t25.5 -33t22.5 -36t24.5 -34q10 -16 22.5 -32.5t18.5 -43.5q-37 27 -64.5 53.5t-60.5 53.5q-4 -18 8.5 -29.5t12.5 -28.5q-88 45 -161 106.5t-149 127.5l-110 -256q-4 29 6 54.5t12 53.5q-41 -63 -69.5 -129.5t-65.5 -132.5l31 219q-25 -23 -32 -48t-34 -48q14 104 41 202.5 t49 196.5q-20 6 -38.5 -3t-36.5 -7q4 10 13 13.5t15 11.5q-16 4 -29.5 -5.5t-29.5 -7.5zM434 610q33 0 50.5 14.5t33.5 32.5q-23 -10 -43.5 -17t-40.5 -30z" />
<glyph unicode="S" horiz-adv-x="753" d="M-143 115v10q4 4 8 6l37 19q59 27 114.5 58.5t110.5 65.5q-57 -4 -109.5 -27.5t-111.5 -41.5q51 47 104 73.5t109 49.5q76 31 146.5 69.5t140.5 81.5q-2 12 -8.5 14.5t-14.5 4.5q-129 41 -250 98q-102 47 -102 147q0 13 2 27q10 66 32.5 125t65.5 113q139 176 326 290 q12 6 23.5 12.5t23.5 10.5q25 12 49.5 20.5t46.5 8.5q37 0 70 -21q10 10 14 18.5t8 18.5q10 18 27 25l92 18q4 0 8 1t8 -3q27 -33 72 -39q10 -2 7 -15.5t-7 -23.5q-23 -53 -45.5 -107.5t-46.5 -107.5q-16 -39 -33.5 -76t-32.5 -75q-14 -41 -37.5 -76t-48.5 -76 q-2 31 9.5 54.5t11.5 56.5q-39 -61 -70 -119t-59 -115q-4 23 5 42.5t13 39.5q4 23 9.5 46.5t9.5 47.5q12 47 12 99q-25 -41 -36 -81t-48 -75q20 86 38.5 164t39.5 159q-31 -16 -56.5 -34.5t-48.5 -40.5q4 0 8.5 1t6.5 -1q6 -4 2 -7.5t-8 -5.5q-2 -2 -3.5 -2t-3.5 -2l-12 -8 q-2 -2 -3 -2t-3 -2q-29 -35 -64.5 -62.5t-68.5 -60.5q-51 -45 -86 -104q-14 -25 -11 -41.5t29 -28.5q49 -23 101.5 -44t109.5 -46q-14 27 -35.5 36t-37.5 25q68 -4 122 -44t68 -97q15 -68 15 -142q0 -22 -1 -46q-4 -49 -34.5 -79t-71.5 -50q-94 -45 -187 -74 q-80 -25 -160.5 -45.5t-162.5 -42.5q-12 -6 -25 4q45 23 90 39t86 45q-41 -8 -84 -16.5t-84 -18.5q-27 -6 -52 -9t-50 -13q-12 -8 -18 4zM246 596q45 -23 91 -39t95 -27q17 -3 17 17q-47 18 -98.5 28.5t-104.5 20.5zM315 1108q78 41 149 93t148 97q-90 -27 -162 -75.5 t-135 -114.5z" />
<glyph unicode="T" horiz-adv-x="872" d="M117 1051q-6 14 1 33.5t21 27.5q12 6 26.5 9t29.5 16q-8 6 -17.5 5t-18.5 -2t-18.5 0t-17.5 7q10 14 27.5 16t21.5 19q2 4 8 9t-4 9q-10 8 -10 17.5t4 19.5q8 18 13 37.5t20 36.5q6 8 15 8h18q47 4 94 6l94 4q47 0 53 41q2 12 12 29q4 14 17 16q10 0 11 -6t1 -12 q4 -14 14.5 -13.5t20.5 0.5q18 2 29.5 -3t9.5 -27q-4 -12 10 -13q10 0 16 11q2 4 3 4q4 41 29.5 49t58.5 6h26t17.5 4t15.5 11.5t23 21.5q4 -23 -2.5 -42.5t-10.5 -35.5q-10 -31 21 -29q72 6 143.5 7.5t142.5 1.5q-4 -18 -19 -18.5t-24 -12.5q10 -12 26 -6t28 -6 q-47 -18 -94.5 -26.5t-92.5 -29.5h80q-2 -23 -15 -30t-28 -11q-55 -16 -109.5 -34.5t-111.5 -28.5q-41 -6 -55 -45q-51 -133 -104.5 -263t-102.5 -264q-35 -96 -75 -189t-83 -185q-8 -12 -12 -17q-2 29 8 51.5t12 53.5q-41 -72 -70.5 -143.5t-70.5 -139.5l31 219 q-25 -25 -33 -50t-27 -42v8q1 19 7 59q8 48 22 112.5t33.5 140t42.5 151.5q35 119 68.5 235.5t68.5 237.5q-29 6 -54.5 -1t-49.5 -11l-31 -6l-62 -10l-30 -7q-10 -4 -22.5 -5t-18.5 14z" />
<glyph unicode="U" horiz-adv-x="765" d="M-52 358q7 78 25 156q37 160 92.5 310.5t118.5 297.5l35 86q4 10 9 20.5t10 20.5q8 20 22 41q22 42 52 56q23 11 57 11q9 0 20 -1q37 -2 37 -43q-2 -16 -9 -30.5t-5 -31.5q14 12 20 29.5t19 34.5q16 23 38 14q23 -6 17 -24q-4 -12 -9 -24.5t-12 -23.5l-82 -184t-79 -186 q-41 -100 -76 -203.5t-60 -210.5q-8 -31 -9 -61.5t18 -59.5q18 -31 41 -30q16 0 36 20q57 51 99 121q45 78 78.5 160t72.5 163q55 117 109.5 233t101.5 238q2 8 15 21q0 -39 -12.5 -75t-16.5 -75q47 90 89 181.5t103 175.5q-4 -55 -22.5 -107.5t-34.5 -111.5q25 27 35 52 t29 48q-4 -37 -26 -111.5t-54.5 -173t-74.5 -211t-85 -225.5t-87 -216t-81 -181q-6 6 -5 12t4 12.5t5 13.5t-2 15q-47 -74 -106 -145q-41 -41 -85 -70q-32 -21 -74 -21q-16 0 -34 3q-2 -10 2 -13.5t10 -4.5t11.5 -3t5.5 -10h-19q-99 0 -167 38q-74 42 -97 128 q-15 58 -15 115q0 20 2 40zM158 297q25 -57 61 -57q23 0 49 18q-35 -4 -59 9.5t-51 29.5zM289 983q16 25 34.5 58.5t36 70.5t30.5 73t20 62q-16 -16 -36 -51t-37.5 -75t-30.5 -77.5t-17 -60.5z" />
<glyph unicode="V" horiz-adv-x="739" d="M106 309v53q0 190 12 379q14 215 29 433q2 12 2.5 23t2.5 22q0 29 12 50t47 27q18 0 18 19q2 10 2 18t2 17q6 31 29 44t51 3q20 -6 21.5 -19.5t-2.5 -29.5q-16 -68 -18.5 -138.5t-1.5 -140.5h3q8 51 14.5 101.5t12.5 101.5q4 18 10 41.5t33 23.5q12 -2 17.5 -9t9.5 -17 q4 -16 2 -35t-4 -35q-2 -14 -4.5 -28.5t-4.5 -28.5l-18 -115q-2 -14 -3 -28.5t-5 -28.5q-16 -117 -34.5 -231.5t-35.5 -231.5q-2 -16 -4 -33.5t6 -34.5q35 74 69 147.5t68 149.5l129 285q16 35 32 70.5t32 70.5l18 43l35 88l19 43q4 10 9 20.5t13 20.5q20 29 51 17 q20 -14 52 -19q16 -4 18 -17.5t6 -25.5q2 -2 8 -2q41 8 57.5 -8t0.5 -53q-18 -41 -37 -81t-41 -81q-86 -166 -171 -332t-179 -332q-72 -123 -141.5 -246.5t-149.5 -242.5q0 -2 -15 -19q2 63 32 112.5t46 103.5q16 53 37 104t39 104q-47 -74 -83 -151.5t-77 -155.5 q-10 78 -13 158t-13 164q-10 -31 -14.5 -59.5t-8.5 -58.5t-9 -57.5t-17 -56.5q0 33 -1.5 64t-1.5 61z" />
<glyph unicode="W" horiz-adv-x="1202" d="M115 315v55q0 205 13 409q15 231 32 464q2 35 13 48.5t46 23.5q16 6 19 20q2 8 2 16.5t2 18.5q6 31 16 39t41 10q29 0 38 -9t3 -36q-4 -31 -8 -61.5t-8 -63.5q-3 -40 -3 -81t3 -83q2 14 3 26.5t3 27.5l14 104q2 12 3 25.5t3 25.5q0 23 10 43q12 23 35 19q18 -2 23 -23 q6 -31 0 -59q-4 -23 -6 -44.5t-6 -43.5l-27 -178q-4 -23 -6 -44.5t-6 -43.5q-16 -104 -33 -207t-29 -209q25 6 39 31q113 211 209 422.5t195 428.5l12 33q6 10 8 23.5t20 11.5q16 0 31 -15.5t15 -31.5q-4 -49 -8 -97q-2 -25 -3 -51q0 -23 2 -47q16 51 28.5 103.5t36.5 101.5 q-20 -233 -54.5 -462.5t-61.5 -462.5l72 151q66 147 132 293.5t132 294.5q18 41 34.5 82t33.5 82q4 10 9 20t11 21q17 24 38 24q10 0 21 -6q23 -14 43 -14q20 -2 21.5 -17.5t5.5 -29.5q4 0 8 1t8 1q10 1 18 1q41 0 42 -29q0 -14 -10 -36q-37 -86 -80 -172 q-86 -162 -170 -322.5t-170 -322.5q-16 -35 -37 -66.5l-43 -64.5q-45 -72 -82 -145.5t-84 -145.5q-16 -23 -31.5 -45t-31.5 -45q4 59 32.5 111.5t44.5 107.5q16 53 39 106.5t41 106.5q-47 -78 -86 -157.5t-84 -159.5l-18 303h-10q-12 -53 -16.5 -106.5t-20.5 -106.5 q-6 105 -8 211q-1 28 -1 56q0 79 5 161q-94 -160 -186.5 -317.5t-192.5 -313.5q-4 23 2 43.5t16 38.5q39 78 65.5 158t59.5 157q-14 -2 -17 -12t-7 -18q-29 -53 -53.5 -105.5t-51.5 -105.5l-9 -22.5t-20 -24.5q-8 84 -10 163.5t-12 163.5q-10 -31 -14.5 -59.5t-8.5 -58 t-9 -57t-17 -56.5q0 27 -1 52.5t-1 53.5zM346 403q14 18 19 43q-10 -10 -16.5 -20.5t-2.5 -22.5z" />
<glyph unicode="X" horiz-adv-x="927" d="M-203 47q6 20 20.5 35.5t24.5 32.5q14 20 25.5 39.5t15.5 46.5q2 14 18.5 38.5t38 51t43 50.5t31.5 36l150 184q20 23 38.5 45.5t37.5 44.5q10 14 20 27.5t21 26.5q23 18 14 51q-29 117 -44 235.5t-42 237.5q-4 20 -6 40.5t-2 43.5q0 35 35 43q10 4 30 8q20 2 32.5 9 t16.5 30q6 37 47 43q10 2 18.5 4t18.5 6q14 8 29 8q20 0 35.5 -11t32.5 -17q18 -6 19 -23.5t1 -34.5v-31.5t2 -31.5v-129q2 -16 2 -32.5v-33.5v-27.5t10 -27.5q16 12 27.5 30.5t22.5 34.5q47 80 103 154t116 146q12 16 24.5 22t32.5 2q23 -6 47.5 -5t50.5 28 q-4 -41 -30.5 -67t-42.5 -60q59 53 114.5 100t124.5 76q-23 -57 -56.5 -105.5t-68.5 -101.5q59 29 102.5 68.5t90.5 74.5q4 -12 -2 -19t-12 -13q-121 -147 -240 -293t-242 -293q-8 -10 -15 -18.5t-18 -18.5l-63 -76q-8 -10 -16.5 -18t-16.5 -19q-20 -20 -20 -55 q4 -111 6 -219.5t2 -218.5q2 -25 -5 -50.5t-4 -52.5q-8 43 -18 86t-22 86q-8 -44 -8 -88v-18q1 -18 1 -35q0 -36 -3 -72q-18 51 -30.5 104.5t-41.5 106.5q-1 -14 -1 -26q0 -26 5 -48q4 -17 4 -34.5t-4 -34.5q-31 78 -41 162t-35 172q-100 -117 -223 -219q-8 6 -3 12t-5 14 l-99 -92q-27 -23 -52 -46.5t-60 -41.5q8 23 23.5 38t25.5 34q10 16 22.5 32.5t22.5 34.5q-55 -41 -100 -91t-99 -91zM330 1194q0 -78 7 -152.5t23 -150.5q-4 78 -10 152.5t-20 150.5z" />
<glyph unicode="Y" horiz-adv-x="899" d="M176 1294q2 37 9.5 47.5t43.5 18.5q23 6 42.5 13t23.5 38q4 25 37 33q16 2 35 10q16 10 32 10q23 0 40.5 -11t35.5 -19q14 -4 14 -19.5v-30.5l7 -264v-26.5t8 -28.5q18 10 27.5 26.5t19.5 32.5q100 166 225 310q25 29 53 20q25 -6 48.5 -5t46.5 24q8 -23 -3.5 -35.5 t-21.5 -24.5q-10 -14 -19.5 -26.5t-17.5 -28.5q113 104 248 188q-29 -59 -63.5 -114.5t-71.5 -108.5q53 27 96 65.5t90 73.5q8 -10 1 -17t-11 -13q-123 -150 -246 -298.5t-246 -297.5q-33 -41 -52 -62.5t-31.5 -40t-21.5 -45t-26 -76.5q-41 -127 -88 -250.5t-88 -250.5 q-6 -27 -26 -41q6 53 13 100q4 25 4 51q0 21 -3 43q-8 -18 -15.5 -35.5t-15.5 -35.5l-63 -146q-8 -16 -15.5 -34.5t-15.5 -37.5l-12 2q10 66 18 132.5t19 134.5q-20 -18 -23.5 -44t-23.5 -48q-8 33 -3 57q16 104 36 205.5t42 206.5q8 36 8 72q0 44 -12 89 q-18 72 -29.5 144.5t-21.5 144.5q-2 20 -5 39.5t-7 40.5l-17 80q-4 16 -6 31.5t-2 31.5zM304 1137.5q1 -37.5 5 -80.5t11.5 -86t15.5 -78q-4 78 -11.5 153.5t-19.5 153.5q-2 -25 -1 -62.5z" />
<glyph unicode="Z" horiz-adv-x="960" d="M-139 96q2 25 11 47.5t46 32.5q-12 14 -21.5 27.5t-5.5 34.5q4 18 18.5 29.5t31.5 21.5q-4 18 -19.5 20t-30.5 6q-18 4 -18 19q0 10 6 11t12 5h5q57 6 92 39t67 74q252 338 557 631q18 16 34 34.5t44 28.5q-4 -18 -17.5 -32.5t-19.5 -37.5l189 162q-10 6 -19.5 4 t-17.5 -4q-129 -33 -254 -64.5t-254 -62.5q-14 -4 -26.5 -7t-24.5 1q-14 0 -19 17q-4 12 13 20q14 8 39 14q33 10 66.5 18.5t66.5 24.5q-94 -12 -187 -43q-8 -4 -16 -6t-19 -6q-12 -4 -20 2t-6 19q4 25 7 51t30 45q12 12 14 24q4 8 4 13l12 26q0 4 5 13q8 29 26.5 40 t46.5 13q117 4 231.5 9t231.5 9q31 1 63 1h31h19q38 0 76 3q20 1 40 1q35 0 68 -4q53 -7 109 -7q10 0 14 -14q-82 -20 -165 -25.5t-165 -25.5q24 -2 49 -2q37 0 73 5q32 5 65 5q29 0 59 -4q-4 -14 -13.5 -21.5t-19.5 -11.5t-22.5 -8t-22.5 -11q4 -12 8 -18q18 -33 9 -60.5 t-35 -52.5q-27 -25 -55.5 -46t-53.5 -50q-14 -14 -24 -35l96 76q-16 -51 -64 -94q-154 -147 -309.5 -286.5t-310.5 -282.5q-8 -10 -18.5 -17.5t-18.5 -23.5q37 -1 72.5 -1t69.5 1q23 1 46 1q46 0 93 -3q45 -3 90 -3q22 0 45 1h16q59 0 117 -13q-72 -18 -144.5 -18 t-144.5 -17q61 -12 124 -12h18h17q65 0 130 -14q-25 -18 -50.5 -27.5t-53 -15.5t-54.5 -11.5t-51 -17.5q4 -6 10 -4t10 -8q-96 -16 -189 -38t-187 -44q-80 -18 -158 -39t-156 -47q-10 -4 -18 -5t-19 -3q-31 -6 -26 24zM811 1337q8 0 12 4h-10q-14 0 -2 -4z" />
<glyph unicode="[" horiz-adv-x="686" d="M-164 -52.5q-6 13.5 10 29.5q10 10 9.5 16.5t-7.5 14.5q-25 43 -6 75t74 42q31 4 33 25q14 66 35.5 129t44 127.5t44 128t38.5 129.5q35 139 83 274t85 276q8 31 16 61t10 62q-16 0 -28.5 -3t-24.5 -5q-47 -6 -41 29q4 23 9 44t42 30q12 2 6 16q-4 10 -1 19.5t7 19.5 q10 27 29 43t57 18q90 4 177.5 3t177.5 -5q10 0 21.5 -1t21.5 -1l84 -6h21t22 -2h4l10 -2q12 0 23 -8q-35 -16 -74 -16.5t-82 -8.5q45 -6 86 -4t80 -8q-59 -4 -120.5 -6t-127.5 -19q59 -6 114.5 -7t108.5 -13q-68 -12 -132 -31.5t-132 -28.5q-35 -4 -51.5 -18t-26.5 -43 q-29 -86 -59.5 -168t-65.5 -166q-53 -123 -98 -248t-90 -249q-16 -51 -41 -99.5t-49 -95.5q10 57 23.5 114.5t23.5 116.5q-12 -12 -21 -34q-29 -88 -59.5 -174.5t-65.5 -172.5q-8 -18 -5 -22t26 -8q63 -4 124.5 -10.5t125.5 -6.5q27 -2 51.5 -4t50.5 -8q-25 -16 -50.5 -19 t-51.5 -3q-29 -2 -57.5 -4.5t-57.5 -6.5q-6 0 -12 -1t-12 -11q47 -6 91 -4t89 -4q-80 -8 -160 -17.5t-166 -17.5q74 -4 146.5 -3t146.5 5q-4 -10 -11 -12t-18 -4q-102 -14 -203.5 -31.5t-205.5 -24.5q-8 -2 -16.5 -1t-18.5 1q-27 4 -33 17.5zM-24.5 153.5 q-8.5 -12.5 1.5 -30.5q18 31 11 53q-4 -10 -12.5 -22.5z" />
<glyph unicode="\" horiz-adv-x="1120" d="M0 1130q4 8 9 13.5t16 -0.5q8 -4 14 -8.5t12 4.5q6 6 1 11t-9 11q-2 4 -5 7t-5 8q-27 37 6 55q10 8 29 8q29 0 47 -25q10 -16 30 -32q8 -6 14.5 -7t16.5 3q25 12 41 12q23 0 47 -25q16 -20 32.5 -42.5t29.5 -47.5q72 -129 157.5 -252t157.5 -252l2 -4q76 -98 131 -203.5 t111 -211.5v-15q-29 23 -47.5 49.5t-42.5 49.5q39 -92 93 -174t89 -175q-78 80 -141.5 166t-126.5 174l-11 -4l101 -192q-2 0 -11 -4q-10 6 -15 15t-11 19q-23 35 -46.5 68t-51.5 66q-96 100 -175 227q-2 4 -4 6t-4 6l-16 23q-2 4 -4 6t-4 6q-35 59 -80 110.5t-82 106.5 q-47 72 -98.5 143.5t-104.5 143.5q-25 31 -44 64.5t-40 68.5q-8 8 -8 24z" />
<glyph unicode="]" horiz-adv-x="864" d="M-123 -31q59 6 120.5 7t127.5 18q-61 8 -116.5 9t-108.5 13q70 10 134 31t132 29q35 4 51 18.5t27 42.5q29 86 59.5 168t65.5 166q53 123 98 247t90 251q16 49 41 97t49 97q-10 -59 -23.5 -115.5t-23.5 -115.5q14 12 18 33q31 88 61 175t66 173q8 18 4 22t-26 6 q-61 6 -122.5 12.5t-125.5 6.5q-27 0 -51.5 3t-50.5 7q25 16 50.5 19.5t51.5 5.5q29 0 57.5 2t57.5 6q6 2 12 3t12 11q-47 4 -91 2t-89 6q80 6 160 16.5t166 18.5q-74 4 -146.5 2t-146.5 -6q4 10 11 12t16 5q104 14 204.5 32.5t204.5 24.5h18.5t18.5 -2q25 -4 32 -16.5 t-9 -28.5q-12 -10 -10 -16.5t8 -16.5q25 -41 6 -74t-74 -41q-16 -4 -23.5 -8t-11.5 -18q-14 -66 -34.5 -129.5t-43 -127t-44 -127t-38.5 -128.5q-35 -141 -83 -276.5t-85 -274.5q-8 -31 -16 -60.5t-10 -62.5q16 -2 28.5 1t24.5 7q23 4 33 -4t6 -27q-4 -23 -8 -44t-41 -27 q-14 -2 -6 -19q4 -8 0 -18l-9 -19q-8 -29 -26.5 -44t-56.5 -17q-90 -4 -177.5 -3t-177.5 5l-86 4t-84 6h-18t-19 8q35 16 74 16.5t82 8.5q-47 8 -87 5t-79 7zM821 1282q4 12 12.5 24.5t-2.5 28.5q-20 -24 -10 -53z" />
<glyph unicode="^" horiz-adv-x="878" d="M34 693.5q9 13.5 17 23.5q16 20 30.5 39.5t31.5 38.5l-4 6q-8 -2 -16.5 -4t-16.5 -6q-27 -4 -37 18t0 51q8 18 20 29q14 10 22.5 19.5t-3.5 29.5q-6 12 2 23.5t18 17.5l308 262q-2 14 6 29.5t21 31t26.5 28.5t21.5 20q27 20 45 -11l17 -24l30 20q14 10 31 18.5t33 6.5 q-8 -14 -21.5 -30.5t-42.5 -55.5l185 -483q6 -12 12 -25.5t6 -32.5q-29 10 -43 32.5t-41 41.5q10 -29 19.5 -54.5t15.5 -50.5q8 -25 18.5 -48t10.5 -58q-35 27 -55.5 57.5t-47.5 63.5q-2 -20 9.5 -31.5t5.5 -30.5q-8 4 -12.5 10.5t-8.5 14.5l-217 432l-250 -379 q-8 -10 -17 -18t-20 -4q-23 10 -37 -1.5t-30 -23.5q-8 -10 -19.5 -21t-21.5 3q-10 12 -1 25.5z" />
<glyph unicode="_" horiz-adv-x="1081" d="M2 186q-2 47 16.5 66.5t79.5 34.5q4 8 -3 8t-11 2q-35 18 -18 47q8 16 16 31.5t18 32.5q10 16 30 20t38 2l686 -4q-20 -18 -45 -21.5t-47 -15.5q20 -8 35.5 -7t31.5 1h19l37 -2h18q14 0 15 -8q0 -10 -13 -15q-18 -4 -36.5 -8t-37.5 -8z" />
<glyph unicode="`" horiz-adv-x="382" d="M42 1101.5q-1 10.5 17 26.5q10 10 14.5 22.5t12.5 23.5q20 27 45 26q16 0 37 -14q10 -8 18.5 -15.5t16.5 -17.5q31 -43 66.5 -85t70.5 -83q6 -6 -4 -12l-94 45q-6 -8 0 -13.5t-2 -15.5q-41 29 -86 48.5t-88 41.5q-23 12 -24 22.5z" />
<glyph unicode="a" horiz-adv-x="868" d="M-135 109q12 53 31.5 104t42 101.5t44 101.5t35.5 104q-20 6 -37.5 -2t-35.5 6q20 41 29.5 87t27.5 89q10 27 39 31q20 4 40.5 6t43.5 6q-20 12 -42 9.5t-38 9.5q28 10 57 10h9q29 4 36 23q29 59 60 119.5t57 119.5q10 23 21.5 44.5t25.5 43.5q20 33 39 41q13 5 38 5 q13 0 28 -1q4 14 4 27.5v28.5q0 10 -3 19t13 18q14 8 30.5 9t26.5 -5q23 -16 33 -17q14 0 29 21q4 6 14 6t17 -6q10 -16 25.5 -17.5t31.5 -1.5q16 2 29.5 2h27.5q29 0 36 -5t7 -29q0 -100 -2 -198.5t-6 -199.5q-2 -33 4 -40t45 -13q4 -4 1 -6t-7 -3t-7 -3.5t3 -8.5 q6 -4 15.5 -7t15.5 -11q-2 -12 -13.5 -17t-23.5 -8q-25 -4 -33 -17t-10 -34q-2 -55 -5 -110.5t-7 -112.5q-4 -53 -5.5 -107.5t-9.5 -113.5q-23 27 -25.5 52.5t-13.5 47.5q-20 -57 -20 -118.5t-11 -122.5q-16 41 -30 82.5t-21 89.5q-16 -10 -13.5 -23.5t-6.5 -24.5 q-16 12 -19.5 27.5t-7.5 30.5q-18 82 -27.5 164t-19.5 166q-4 29 -13 30.5t-34 -4.5q-35 -8 -70.5 -15t-70.5 -11q-31 -4 -45 -31l-86 -158q-4 -8 -8.5 -17.5t-18.5 -13.5q-4 20 8.5 39t10.5 43q-53 -72 -91.5 -145.5t-85.5 -142.5l43 172q-94 -98 -151 -215zM371 788 q16 -4 33.5 -1.5t35.5 3.5q20 0 17 17q-4 27 -4 53.5t-9 52.5h-10l-8 -12t-8 -14l-31 -49q-4 -8 -8 -14.5t-8 -12.5q-8 -10 0 -23z" />
<glyph unicode="b" horiz-adv-x="962" d="M-63 119q47 23 86.5 51.5t89.5 46.5q27 10 30 39q4 29 7.5 58.5t5.5 58.5q-16 -25 -22 -53.5t-28 -55.5q-18 16 -16 32.5t4 33.5q25 145 58.5 285.5t74.5 281.5q6 20 36 32.5t52 2.5q10 -6 16.5 -7t16.5 9q16 18 35 18q14 0 35 -16q6 -6 4 -12t-4 -13q-16 -39 -17 -77 q12 23 24.5 43t23.5 43q15 31 54 31q7 0 15 -1q-23 -61 -50.5 -120.5t-49.5 -118.5q29 0 71.5 18.5t88 47t83 63t56.5 65.5q-25 -10 -37 -25.5t-35 -23.5q-4 10 2 17.5t10 13.5q10 12 16.5 26.5t10.5 30.5v7q0 32 -33 46q-39 19 -80 21q-23 1 -46 1l-36 -1q-57 0 -118 -17 q-80 -16 -161 -34.5t-167 -46.5q18 18 36.5 27t31.5 26q10 14 23 27.5t24 25.5q-6 10 -16.5 7t-16.5 3q-4 6 4 11q59 35 88 94q10 20 28.5 29.5t41.5 17.5q47 16 97 24.5t99 18.5q4 2 9.5 2t9.5 6q-59 0 -113.5 -13.5t-114.5 -21.5q4 20 18.5 27.5t31.5 13.5q23 8 58.5 13.5 t74.5 8.5t74.5 4t60.5 1q45 0 92 -4t93 -16.5t88 -34t73 -56.5q25 -25 25 -63q-2 -45 -14.5 -87t-47.5 -79q-45 -49 -96 -91t-105 -83q-12 -10 -24 -18.5t-23 -18.5q8 -12 19 -8q16 -2 33.5 -3t33.5 -5q121 -23 149 -74q13 -24 12 -52q0 -33 -17 -73q-47 -113 -148 -174 q-41 -29 -85 -49.5t-89 -42.5q-131 -63 -271 -98.5t-294 -53.5q16 10 29.5 17.5t27.5 17.5q33 16 53 43zM238.5 292q-5.5 -7 5.5 -16q49 14 96 34t90 48q-29 0 -53.5 -12t-59.5 -8q96 33 177 70.5t147 103.5q-37 18 -75 25.5t-74 7.5q-59 0 -121 -13q-31 -6 -37 -34 q-18 -49 -41 -97.5t-45 -95.5q-4 -6 -9.5 -13z" />
<glyph unicode="c" horiz-adv-x="765" d="M-57 438q8 54 18 107q14 70 49 149.5t81 157.5t98.5 147.5t101.5 118.5q10 10 20.5 21.5t26.5 19.5q6 -10 -4 -18t-6 -21q49 39 96 77t111 63q0 -16 -12.5 -23.5t-16.5 -24.5q27 -6 48 -19t34 -38q16 16 22 33.5t17 34.5q10 16 17 24t20 8q8 0 32 -10q16 -10 31 0 q27 12 55.5 13.5t57.5 3.5q33 4 22 -25q-10 -27 -20.5 -52.5t-24.5 -49.5q-41 -76 -78 -153t-73 -155q-8 -18 -19.5 -36.5t-23.5 -34.5q-4 25 2 42t4 38q-12 -4 -16.5 -11.5t-8.5 -15.5l-94 -186q-10 -23 -23.5 -46.5t-35.5 -50.5q10 55 25.5 104.5t17.5 98.5 q-12 0 -15.5 -8t-19.5 -12q6 63 18 124.5t15 122.5q-18 4 -29.5 -2t-22.5 -14q-111 -72 -175 -166t-95 -207q-3 -16 -2 -30q0 -19 4 -37q18 -70 104 -86q34 -6 66 -6q22 0 44 3q54 7 106 29q8 4 14 6.5t14 6.5l58 26q8 4 14 6t14 7q-29 -45 -69.5 -81t-81.5 -79 q49 16 86 37.5t77 44.5q4 -23 0 -38.5t-12 -31.5q-10 -14 -18 -27.5t-17 -29.5q12 -4 21.5 3t21.5 5q-35 -53 -147.5 -87t-278.5 -42q39 -8 75 -10t73 -4q-51 -14 -107 -15q-104 0 -182 52.5t-100 140.5q-7 33 -7 65q0 22 3 43z" />
<glyph unicode="d" horiz-adv-x="868" d="M-78 129q41 23 77 47.5t79 40.5q31 12 33 39q4 29 7 57.5t5 57.5q-8 -12 -13.5 -25.5t-9.5 -28t-11.5 -29t-20.5 -26.5q-10 23 -9.5 42.5t4.5 37.5q23 141 57 279.5t75 275.5q4 16 22.5 26.5t40.5 10.5q16 0 29 -6q18 -8 26 6q14 20 29 20q8 0 25 -10q10 -10 23 -6t28 -2 l-56 -162q16 4 18.5 11.5t6.5 13.5q14 31 26.5 61.5t26.5 59.5q4 10 10.5 21t30.5 11q-8 -41 -26.5 -79.5t-34.5 -77.5q-6 -18 -17 -39l-32 -80q-4 -10 -8.5 -20.5t-8.5 -20.5q-14 -39 -30.5 -77t-30.5 -79t-32.5 -80t-39.5 -86q86 53 147.5 112.5t116.5 131.5 q-23 -4 -31 -15.5t-26 -15.5q10 20 23.5 34.5t25.5 31.5q47 55 91 110.5t73 120.5q16 37 27 82q1 10 1 19q0 95 -116 127q-32 9 -63 9h-6q-34 -1 -70 -5q-139 -14 -273 -68l-32 -12q-10 -4 -18.5 -6t-18.5 -4q8 16 22.5 21t28.5 11q39 16 49 58q4 8 -2 9t-12 3 q-6 -10 -17.5 -12t-23.5 -6q16 20 39 20q37 23 47 53q10 39 41.5 63.5t73.5 39t86.5 20.5t76.5 8q-21 2 -42 2q-59 0 -115 -13q-74 -17 -152 -34q61 41 150.5 63.5t164.5 22.5q51 0 108.5 -10t112 -31.5t99.5 -56.5t70 -84q40 -83 40 -163q1 -15 -1 -29q-8 -94 -68 -187 q-92 -147 -216 -270t-280 -227q-25 -16 -77 -42t-110.5 -49t-113.5 -40t-88 -17l109 68q-41 0 -76 -11.5t-74 -15.5z" />
<glyph unicode="e" d="M-150 96q12 12 28 18.5t30 10.5q23 6 29 22q4 8 4 13.5t-13 11.5q-23 10 -24.5 18.5t14.5 24.5q20 16 14 37q-2 7 -2 13q0 28 39 36q37 8 49.5 27.5t16.5 48.5q4 31 11 60.5t15 58.5q2 10 3.5 20t3.5 21q-14 4 -24.5 2t-20.5 -2q-45 -2 -52 24q-4 18 8.5 35.5t30.5 19.5 q4 0 18.5 3.5t29 8.5t25.5 11t11 12q-12 4 -24.5 2t-24.5 0q-35 6 -22 33q8 16 23 24.5t34 8.5q29 2 41 15.5t18 33.5q10 35 21.5 68.5t21.5 68.5q8 27 38 38t59 -1q18 -10 26 4q14 20 29 21q10 0 24 -11q10 -10 23.5 -5t28.5 -3l-64 -166q14 0 16.5 6.5t4.5 12.5l8 16t8 17 l31 63q4 10 8 17.5t8 15.5q2 6 5 12t7 10q6 16 25 11q6 -2 6 -8.5t-4 -10.5q-12 -29 -25.5 -58.5t-27.5 -58.5q-4 -10 -9.5 -20t-9.5 -25q18 -1 35 -1q59 1 116 11q73 14 152 23q-29 -23 -59.5 -28t-58.5 -19q24 -4 46 -4t44 4t45 4t49 -4q-35 -29 -67.5 -54.5t-75.5 -35.5 q-66 -18 -130.5 -36.5t-134.5 -29.5q-45 -6 -59 -45q-18 -47 -40.5 -93t-45.5 -99q135 27 268 45t275 22q-41 -29 -83 -44t-83 -31q13 -1 26 -1l72 8q49 11 105 11q-29 -20 -56.5 -32.5t-56.5 -28.5q10 -10 20.5 -3t20.5 -2q-27 -18 -93.5 -42.5t-153.5 -51t-184 -51 t-184 -44.5q-88 -18 -158 -28q-49 -7 -77 -7q-12 0 -21 1zM80 342q16 16 10 39q-20 -14 -10 -39zM156 1053q8 29 15 59.5t17 61.5q8 29 15.5 33.5t42.5 6.5h21.5t21.5 7q-14 8 -26.5 6t-24.5 0q-10 2 -18.5 3t-8.5 11q0 16 22 23l7 2h2q96 0 189 10q78 8 158 8h32 q41 0 79.5 -1t79.5 -3q52 -2 106 -4q27 -1 53.5 -1t53.5 1q23 6 41 -12l-225 -72q39 -9 75 -9h7h26q26 0 54 -1q-20 -12 -78.5 -34t-137.5 -45.5t-168 -48t-171 -44t-146.5 -31.5t-95.5 -12q51 16 99.5 29.5t95.5 33.5q-41 -2 -79 -7t-79 -15q-43 -10 -54.5 -1t-0.5 46z" />
<glyph unicode="f" horiz-adv-x="831" d="M-33 561q-6 18 8 37q10 18 33 18q47 6 80 37q-12 0 -24.5 -1t-24.5 1q-35 2 -23 33q8 16 23.5 24.5t34.5 8.5q29 2 41 14t18 35q10 35 21.5 68.5t21.5 68.5q16 41 66 41q25 0 45 -12q10 4 12 11t8 11q6 8 17.5 10.5t17.5 -3.5q25 -18 61 -7q-10 -47 -29.5 -89t-21.5 -89 q16 37 33.5 73t34.5 71q10 20 22 39q8 8 19 4q10 -4 4 -15q-4 -8 -6 -14t-6 -14l-27 -60q-4 -8 -12 -28q-6 -12 -13.5 -23.5t-3.5 -28.5h20q64 0 127 10q72 13 144 19q-23 -18 -52.5 -23.5t-62.5 -19.5q25 -4 49 -4q21 0 40 3q28 4 54 4q14 0 29 -1q8 -8 3 -12 q-35 -29 -71 -53.5t-85 -34.5q-57 -12 -111.5 -28.5t-113.5 -25.5q-27 -4 -39.5 -15t-20.5 -32q-6 -18 -25.5 -68t-43 -106.5t-46 -102.5t-34.5 -56q10 29 16 55t14 53l-6 2q-4 -10 -8 -19.5t-8 -19.5l-31 -74q-4 -10 -8 -19t-8 -19q-27 -78 -82 -146q0 84 18.5 165 t26.5 163q-29 -55 -47.5 -112.5t-40.5 -114.5q4 98 27.5 193t39.5 192q-12 6 -22 4t-21 -2q-45 -2 -51 24zM147 1032q8 49 25 101q6 25 10 37t12.5 19t25 11t44.5 8q16 4 32.5 5t33.5 6q16 2 30.5 4t30.5 6q-31 3 -61 3t-60 -3q-8 0 -15 -1t-17 -1h-20.5t-12.5 10 q-2 12 7 20.5t26 6.5q35 2 67.5 3t65.5 5q102 10 203 11h40q80 0 162 -3q53 -4 106 -5h36q36 0 71 1q10 2 18.5 1t18.5 -13q-53 -23 -108.5 -36.5t-108.5 -35.5q37 -9 71 -9h7h15q30 0 61 -3q-20 -12 -79 -34t-137.5 -45.5t-166.5 -47t-170 -43t-147.5 -31.5t-96.5 -12 q53 16 107.5 31.5t107.5 37.5q-41 -6 -84 -11t-84 -15l-31 -6q-23 -2 -31 4t-4 24z" />
<glyph unicode="g" horiz-adv-x="847" d="M-49 414q-3 26 -3 51q0 55 14 107q22 75 56 149q61 131 154.5 240.5t200.5 207.5q12 12 26.5 24.5t34.5 16.5q-14 -16 -30.5 -32.5t-26.5 -36.5q59 41 118.5 86t143.5 65q-16 -25 -38.5 -41t-41.5 -39q23 -10 39 -23t29 -36q14 18 21 33.5t16 32.5q10 18 16 26t18 8 q14 0 41 -12q4 0 6.5 -3t6.5 1q18 16 42.5 18.5t43.5 18.5q23 23 41 28t47 3q-20 -47 -36 -94.5t-42 -92.5q-33 -59 -61.5 -117.5t-55.5 -117.5q-4 -10 -10 -22.5t-29 -10.5q-4 16 5.5 29.5t-3.5 29.5q-31 -39 -57.5 -79.5t-69.5 -75.5q-4 25 5.5 45t11.5 45 q-29 -31 -42.5 -62.5t-31.5 -60.5q-10 2 -8 5t2 7t4 17q29 86 43 178q6 35 -35 33q-41 0 -84 -27t-81 -64.5t-67.5 -79.5t-47.5 -73q-29 -49 -40 -101q-6 -25 -6 -50q0 -29 7 -58q6 -29 24.5 -51.5t46.5 -32.5q12 -8 17 -12v-4q-10 -10 -24.5 -6t-27.5 -3q31 -18 60 -18 t59.5 18.5t57 45t48 57.5t34.5 53q-33 4 -59.5 -5t-53.5 -13q-31 -6 -47 -7q-23 0 -26 12.5t1 45.5q4 25 21.5 31t40.5 10q-10 10 -24.5 8t-20.5 8q2 23 17 30t40 11q96 6 191.5 12.5t191.5 18.5h10h40t26 -12q8 -18 -12.5 -22.5t-34.5 -12.5q-10 -6 -19.5 -11.5 t-21.5 -11.5l28 -10q-6 -4 -22 -12q-41 -12 -59.5 -38t-28.5 -59q-39 -117 -89.5 -229.5t-97.5 -226.5q-14 -29 -29.5 -56.5t-33.5 -52.5q8 55 18.5 105.5t22.5 107.5q-14 -20 -23.5 -40.5t-17.5 -40t-19.5 -39t-31.5 -35.5q6 59 7 114.5t11 112.5q-33 -18 -54.5 -40 t-51.5 -34q10 -10 17 -3t15 3q-31 -43 -77 -43q-10 0 -22.5 2t-25.5 6q-117 35 -172 104.5t-65 168.5z" />
<glyph unicode="h" horiz-adv-x="905" d="M-14 622q14 11 34 19q31 10 52 21q-10 0 -20.5 -1.5t-20.5 1.5q-41 4 -29 34q10 35 23.5 51.5t50.5 20.5q33 4 39 8t12 33q29 115 65.5 225.5t67.5 225.5q4 10 6 19t6 19q8 16 13.5 17.5t21.5 -15.5q10 -10 19.5 -8t19.5 0q25 -2 31 -6t4 -24q-4 -12 -4 -25.5v-26.5 q29 31 37 70q4 23 18 29t37 8h25q25 -4 46 1t31 30q10 -16 6 -32t-8 -30q-10 -29 -20 -54.5t-21 -51.5q-39 -88 -73.5 -175t-69.5 -178q-4 -6 -7 -12t-1 -16q6 -8 15 -7t18 3q29 2 57.5 3t56.5 3q35 4 42 9t16 32q31 100 61.5 199.5t65.5 197.5q2 4 4 11l4 14q4 18 21.5 23 t33.5 5q47 4 55.5 -4t3.5 -47q-6 -18 -2 -41q10 20 19.5 40t17.5 38q10 25 19.5 31t40.5 8h24q25 -4 43.5 1t24.5 28q16 -4 14 -12.5t-2 -14.5q-6 -29 -15 -56.5t-22 -54.5q-35 -84 -68.5 -165.5t-68.5 -165.5q-4 -10 -9 -21.5t-3 -26.5q16 -8 39.5 -5t38.5 -15 q-4 -16 -16.5 -24.5t-28 -13.5t-32 -9t-30.5 -10q16 -10 32.5 -4t31.5 -3q-2 -14 -12.5 -20t-20.5 -10t-21.5 -7t-21.5 -8q-20 -8 -19 -18q2 -6 8.5 -8t12.5 -4q14 0 35 -11q0 -6 -7.5 -8t-11.5 -2q-43 -4 -60.5 -26.5t-27.5 -51.5q-29 -78 -60.5 -152.5t-66.5 -148.5 q-8 -18 -18 -30q0 29 10 53t12 53q-35 -76 -65.5 -151.5t-81.5 -145.5v16q1 76 17 149q18 81 26 165q-27 -57 -46.5 -113.5t-41.5 -113.5q10 115 35.5 224t56.5 220q-12 10 -24.5 8t-22.5 -4q-35 -6 -69 -13t-68 -12q-29 -4 -42.5 -14t-21.5 -33q-23 -70 -53.5 -136 t-61.5 -132l-4 -8t-6 -8q-2 25 7.5 45t7.5 43q-37 -55 -63 -114.5t-60 -115.5q4 47 10 93.5t10 99.5q-23 -20 -30 -43t-29 -45q10 92 28.5 176t40.5 168q-12 8 -24 5t-23 -3h-4q-39 0 -39 32q0 24 17 37zM440 623q20 -2 39 -1t39 13q-23 4 -41.5 -2t-36.5 -10z" />
<glyph unicode="i" horiz-adv-x="364" d="M-68 195q47 274 123 538t156 533q4 10 8 19t21 13q7 -27 40 -27q7 0 15 1q16 4 22.5 -5.5t4.5 -21.5q-2 -14 -3.5 -27.5t0.5 -27.5q27 31 37 72q4 18 16.5 24t30.5 6q8 2 23 2q27 -4 51.5 -1t34.5 32q10 -6 9 -13t-3 -12q-6 -39 -19.5 -74.5t-29.5 -70.5 q-59 -137 -114.5 -273.5t-108.5 -273.5q-37 -98 -79 -193.5t-83 -193.5l-12 -8l26 94q-41 -53 -66.5 -111.5t-60.5 -113.5q4 47 9.5 93t11.5 97q-23 -18 -30 -40.5t-30 -36.5z" />
<glyph unicode="j" horiz-adv-x="708" d="M-81 355q1 91 30 184q4 12 5 25.5t15 27.5q8 -29 8 -55v-11v-5q0 -28 17 -58q4 41 7 80t7 78q16 -14 17.5 -30t1.5 -32q0 -20 4 -56t14 -71t28.5 -60.5t47.5 -25.5q14 0 29 19q4 8 8 15t8 15q29 86 64.5 170t58.5 174q23 86 45 168t51 166v14q-29 2 -55.5 -4t-55.5 -10 t-36 -1t-15 26q-2 10 -8 14q-14 14 -9 24.5t19 20.5q6 4 13.5 5t11.5 12q-18 10 -20.5 22t1.5 29q6 25 9.5 38t11.5 20t24.5 8t45.5 1q88 2 174 2h174q23 0 42 3t27 26q16 0 13.5 -13.5t13.5 -13.5h64.5t64.5 4q6 0 10 -2q-6 -8 -10 -13t-15.5 -9t-33 -9t-62.5 -14 q12 -10 26.5 -11t29.5 -1q12 -2 24.5 -3t22.5 -9q0 -6 -5 -9t-10.5 -7.5t-6.5 -8.5t7 -12q4 -4 -4 -8t-16 -6q-61 -23 -125 -31q-20 -2 -29.5 -10.5t-15.5 -22.5q-53 -129 -106.5 -259t-102.5 -261q-37 -96 -78 -190.5t-86 -192.5q-4 29 7.5 52.5t11.5 53.5 q-41 -61 -64.5 -121.5t-56.5 -119.5q-6 16 -2 27.5t-4 27.5q-14 -16 -26.5 -30.5t-24.5 -28.5q-16 -16 -43 -36t-54 -20q-14 0 -37 19q-70 57 -82 135q-15 88 -15 174v11z" />
<glyph unicode="k" horiz-adv-x="989" d="M-59 414q16 18 28.5 32.5t24.5 28.5q10 12 20.5 23.5t20.5 23.5q10 10 10 19.5t-18 17.5q-8 4 -21 12q-18 12 -23.5 33t5.5 37q8 16 24 8q10 -4 16.5 -8t22.5 -4q-16 18 -31.5 33.5t-11.5 38.5q6 31 25 55q8 10 21.5 11t23.5 9t22.5 1t28.5 -9q35 133 76 262t86 262 q14 -16 29.5 -24t37.5 -4q31 2 27 -25q-6 -31 2 -59q8 18 17.5 35.5t13.5 36.5q4 20 17.5 26t33.5 8h20q12 0 25.5 -1t25 0t19.5 8.5t10 23.5q14 -4 13.5 -11t-0.5 -14q-6 -35 -18.5 -66.5t-26.5 -64.5q-6 -14 -12.5 -28.5t-12.5 -28.5l-47 -115q-6 -14 -12.5 -28.5 t-12.5 -28.5q-4 -10 -8 -19.5t0 -21.5q10 0 17 8q41 55 89 105.5t97 101.5q39 41 76 81t71 81q14 16 24.5 25.5t27.5 9.5q16 0 43 -15q4 -2 9 -4t9 0q12 6 21.5 5t17.5 -5t17.5 -8t19.5 -2q6 0 8 -7t-2 -11q-8 -14 -25 -27q-8 -10 -18 -18.5t-19 -24.5q23 8 33 18.5t23 20.5 q23 14 39 14q37 0 49 -35q4 -8 -6 -18q-12 -10 -24.5 -21.5t-27.5 -23.5l-98 -88q-14 -10 -26.5 -22.5t-24.5 -22.5q-4 -4 -6 -5t-6 -5l-27 -21q-4 -4 -6 -5t-6 -5q-100 -82 -198.5 -163t-196.5 -163q-16 -12 -24.5 -20t-8.5 -14.5t7 -14.5t21 -22q57 -53 112.5 -105.5 t109.5 -107.5q4 -4 10 -9.5t6 -11.5q16 -4 25.5 -12t19.5 -19q-29 4 -45 29q-14 0 -23.5 7t-25.5 11q53 -63 116.5 -114t112.5 -113l-215 113q10 -23 32.5 -40.5t35.5 -39.5q-111 55 -215.5 116.5t-206.5 131.5q-41 -82 -72 -163t-86 -153q4 33 12 62.5t7 60.5 q-33 -53 -53.5 -109.5t-47.5 -113.5q-10 23 -3 42t9 40q2 20 7.5 40.5t9.5 43.5t5 44t5 46q-18 -14 -23.5 -31.5t-27.5 -32.5q18 139 55 271q-29 -8 -50.5 -25.5t-55.5 -21.5z" />
<glyph unicode="l" horiz-adv-x="770" d="M-109 272q5 23 35 27q23 4 37 12q-31 16 -44 47t3 60q10 18 43 18q33 4 40 8.5t13 32.5q47 195 101.5 386.5t113.5 381.5q4 14 9.5 29.5t23.5 25.5q10 -29 44 -29q7 0 14 1q16 4 22 -5.5t6 -21.5q-2 -14 -5 -28.5t1 -30.5q27 33 37 76q4 18 16.5 24t32.5 8h15h38t22 3 t16 9.5t20 16.5q8 -4 6 -11t-4 -12q-6 -35 -17.5 -67.5t-27.5 -65.5q-74 -172 -143.5 -344t-135.5 -346q-6 -18 -2 -23t29 -1q80 6 161 6t160 4q14 2 29.5 1t38.5 -1q-35 -20 -68.5 -25.5t-66.5 -19.5q26 -4 51 -4q22 0 44 3q46 7 99 11q-51 -31 -103 -42.5t-99 -29.5 q16 -6 34.5 0t40.5 0q-53 -18 -106 -24t-107 -31q16 -2 30 -2q22 0 42 4t41 4q14 0 29 -2q-14 -12 -27.5 -16t-28.5 -8q-72 -16 -144.5 -33t-145.5 -33q-37 -6 -48 -33q-8 -16 -18 -33.5t-29 -29.5l13 69q-29 -33 -42.5 -70.5t-41.5 -72.5q4 27 3 52.5t-1 54.5q0 14 -5 23 t-28 5q-6 -4 -10 0q-10 2 -21.5 1t-15.5 9t7 13.5t11 11.5q-6 4 -14 8t-12 8q-16 18 -11 41z" />
<glyph unicode="m" horiz-adv-x="1042" d="M-72 182q10 51 17.5 96.5t17.5 88.5q25 102 51.5 201.5t53.5 201.5q31 121 68.5 238.5t70.5 238.5q2 14 10 29q4 18 16 20q10 4 12.5 -3t4.5 -13q4 -10 13 -9t18 1q33 -2 39 -6t2 -31q0 -4 -1.5 -7t-1.5 -7l-4 -27q0 -4 -1 -7t-1 -7l6 -4q10 23 20.5 44t18.5 44 q8 29 45 28q8 2 25 2h51.5t28.5 35l12 -12q-19 -28 -19 -58q0 -51 -1 -65v-117l2 -233v-117q0 -4 1 -6t11 -6l123 233q31 59 66.5 114.5t76.5 108.5q-29 -57 -54.5 -113.5t-53.5 -117.5q16 8 22 16.5t11 18.5l143 266q10 16 25.5 35.5t37.5 19.5q12 0 27 -14q16 -12 41 -12 q18 0 37 6q35 19 76 19q9 0 18 -1q27 -4 47.5 2t32.5 35q10 -16 8 -28.5t-6 -24.5q-6 -25 -15.5 -49.5t-19.5 -48.5q-63 -145 -121.5 -288.5t-113.5 -291.5q-35 -92 -73 -182t-85 -187q-6 27 3 46.5t9 46.5q-41 -61 -66.5 -123t-60.5 -121q4 47 9.5 91t9.5 91 q-23 -16 -31 -37.5t-31 -42.5q27 170 68 330t82 319q-33 -31 -54.5 -64.5t-44.5 -68.5q-6 -10 -11 -17t-11 -17l-45 -72q-6 -8 -11.5 -16.5t-11.5 -18.5q-23 -35 -43 -69.5t-41 -69.5q-23 -35 -45 -70t-51 -67q-2 121 -11 239q-6 81 -6 163q0 36 1 73q-12 -47 -14.5 -95.5 t-10.5 -97.5q-8 59 -14 122t-15 128q-23 -39 -27.5 -77t-21.5 -72q-4 -10 -7 -18.5t-7 -16.5l-27 -74q-33 -80 -66.5 -159t-74.5 -156q-4 20 4 37.5t8 37.5q-39 -57 -64.5 -116.5t-60.5 -116.5q4 45 9.5 90t9.5 98q-23 -23 -31 -44t-33 -44z" />
<glyph unicode="n" horiz-adv-x="890" d="M-72 182q10 49 16.5 93t16.5 87q29 119 59.5 237t63.5 235q29 109 61.5 214t65.5 214q2 16 16 30q4 4 11.5 5t7.5 -5q4 -18 15 -19t26 -1q27 0 32 -5t3 -26q0 -16 -2.5 -31.5t-6.5 -31.5l9 -2q10 23 19 43t15 43q10 32 51 32h3h14q29 -2 53.5 1t38.5 38q8 -29 1 -49 t-13 -41q-4 -14 -3 -23.5t27 -11.5q12 -2 16.5 -10t4.5 -16v-70q-7 -129 -13 -258q-5 -99 -4 -200v-62q10 8 13.5 16t7.5 17q31 92 51.5 183t48.5 183q23 61 40.5 124t35.5 126q4 16 9 31.5t26 30.5q10 -32 45 -32q6 0 12 1q16 4 23.5 -5.5t5.5 -21.5q-2 -14 -5 -28.5 t1 -30.5q27 33 37 76q8 31 43 30q8 2 20 2q29 -2 54.5 0t37.5 33q10 -10 10 -16t-4 -13q-6 -35 -19 -69.5t-28 -69.5q-59 -137 -114.5 -273t-108.5 -276q-37 -98 -79 -193t-83 -192q-2 -8 -10 -8q0 23 9.5 45.5t9.5 46.5q-37 -55 -61.5 -113.5t-57.5 -113.5q0 43 7 87 q4 28 4 58q0 17 -1 35q-18 -18 -24.5 -37.5t-26.5 -31.5q-6 14 -3 25t7 24q8 29 8 58v12q-2 34 -6 71q-6 59 -11 120.5t-14 123.5q-3 -33 -3 -65v-16q1 -40 3 -81t4 -81q1 -13 1 -27q0 -27 -3 -54q-31 129 -59.5 255t-42.5 259q-18 -6 -21.5 -18.5t-7.5 -22.5 q-41 -104 -80.5 -207.5t-87.5 -208.5q-12 -31 -26.5 -60.5t-30.5 -59.5q-4 20 3 37.5t7 37.5q-39 -55 -64.5 -115.5t-62.5 -117.5q4 45 9.5 91t11.5 99q-23 -23 -31 -45t-33 -45z" />
<glyph unicode="o" horiz-adv-x="817" d="M10 375q0 68 17.5 148.5t45 161.5t61.5 157t69 133q8 10 14 20.5t14 20.5q25 33 56 33q18 0 41 -9q12 -4 18 -2t14 11q20 16 31 16q10 0 23 -23q2 -10 16 -14q35 -10 39 -19.5t-14 -37.5q-33 -51 -58.5 -103.5t-54.5 -103.5q-4 -12 -4 -16q16 4 18 15t11 21q8 10 15 21.5 t13 21.5q6 -10 3 -16t-7 -12q-57 -92 -92 -190.5t-63 -200.5q-4 -17 -5 -33q0 -22 9 -43q12 -27 30 -27q14 0 34 15.5t39 35t35.5 40t22.5 30.5q76 117 131.5 237.5t81.5 251.5q6 18 6 38q0 23 -8 48q-29 84 -129 97q-21 3 -43 3q-32 0 -65 -7q-70 -14 -133.5 -38 t-118.5 -61q-8 -4 -15.5 -11t-17.5 -3q29 25 56.5 50.5t56.5 49.5q31 23 67.5 39.5t71.5 36.5q-53 -6 -97 -28.5t-93 -38.5q-4 12 3 16t15 8q41 14 41 55q0 16 9 24.5t24 14.5q16 6 30.5 12.5t28.5 12.5q74 37 154 47q40 5 81 5t83 -5q68 -10 119.5 -40t80.5 -87 q35 -65 38 -133q1 -12 1 -24q0 -56 -12 -113q-27 -121 -78 -232.5t-117 -220.5q0 -4 -2 -4t-6 -4q-4 16 6.5 31.5t5.5 35.5q-41 -43 -61 -92q-25 -59 -78 -121.5t-100 -105.5q-4 -6 -11.5 -11t-13.5 -12q-50 -36 -109 -36h-3q-43 0 -82 19.5t-62 57.5q-33 54 -49 112 q-11 39 -11 80q0 21 3 42q4 35 8 71.5t8 73.5q-29 -37 -45 -122q-13 -68 -13 -147q0 -20 1 -40q-20 31 -23.5 59.5t-5.5 57.5zM299 158h12q47 0 74 22q68 55 115 133q-49 -41 -93.5 -84t-107.5 -71zM319 702q23 27 19 43q-16 -12 -19 -43z" />
<glyph unicode="p" horiz-adv-x="854" d="M43 920q16 20 35.5 28t32.5 25q10 14 23 27.5t24 25.5q-6 10 -15.5 5t-11.5 -1q-8 10 -6 12q63 37 94 101q10 18 26.5 27.5t37.5 15.5q49 16 100 25.5t104 19.5q4 2 23 8h-16q-57 0 -106 -13q-56 -14 -116 -22q6 18 18.5 25.5t28.5 13.5q23 8 59 14.5t75 9.5t75.5 4 t61.5 1q41 0 88 -4t93 -15.5t87 -32t72 -51.5q23 -23 29 -46t4 -50q-4 -47 -21.5 -88t-44.5 -80q-76 -113 -187.5 -190.5t-256.5 -124.5q18 16 40.5 28.5t38.5 34.5q-20 -8 -28 -14l-62 -25q-8 -6 -28 -14q-10 -6 -14.5 -15.5t-8.5 -19.5q-33 -74 -65.5 -148.5t-67.5 -150.5 q-6 -14 -16 -26q-4 10 -3 18t5 18q8 16 8 39q-39 -55 -64.5 -115.5t-60.5 -117.5q4 45 9 91t9 99q-23 -23 -31 -45t-32 -45q10 49 16 92t17 84q4 23 10 44.5t12 43.5q6 29 2 35t-37 13q10 12 27.5 18t28.5 25q-31 0 -54.5 -12.5t-52.5 -16.5q4 10 10.5 13t12.5 7 q16 10 30.5 18.5t30.5 16.5q37 20 43 60q16 70 34.5 137t33.5 137q6 29 23.5 41t45.5 18q14 2 24.5 2t14.5 -18q2 -10 10.5 -8t12.5 8q4 4 7 12.5t7 14.5q10 10 23.5 10t17.5 -12q4 -10 8 -21.5t0 -23.5q-10 -25 -14 -50.5t-12 -56.5q27 39 39 88q8 29 27 45q16 15 54 15h9 q-20 -61 -46 -121t-48 -119q35 6 76.5 25.5t79.5 46t67.5 57.5t38.5 55q-18 -10 -31.5 -24.5t-34.5 -24.5q-6 10 0 15.5t10 11.5l4 8l13 18q0 4 4 9q8 18 8 33q0 39 -55 55t-107 16q-43 0 -101.5 -9t-118.5 -22.5t-116.5 -29t-97.5 -27.5q-10 -4 -19.5 -7t-25.5 -7z" />
<glyph unicode="q" horiz-adv-x="827" d="M-47 151.5q2 20.5 33 36.5q4 4 -2 11q-16 16 -7 22t23 12q23 10 48.5 14.5t49.5 8.5q16 4 34 5t36 5q-4 12 -11 19.5t-14 13.5q-52 65 -52 142q0 13 1 26q4 33 6 64.5t2 64.5q-33 -76 -50 -152q-11 -49 -11 -99q0 -30 4 -60q-16 23 -21.5 48t-7.5 50q-1 14 -1 27 q0 27 3 52q4 38 13 77q31 143 92 278q23 43 39 89t45 87q10 12 17 24.5t18 22.5q25 31 55 31q16 0 33 -8q14 -6 21 -4t18 10q16 16 26 16q16 0 25 -24q2 -6 6 -7t10 -5q35 -8 39 -18.5t-14 -39.5q-33 -53 -61.5 -110.5t-53.5 -116.5q16 23 30.5 46.5t33.5 51.5 q0 -23 -7.5 -36t-15.5 -25q-43 -76 -66.5 -155t-44.5 -159q-2 -12 -3 -25t3 -26q4 -35 33 -35q14 0 29.5 8.5t25.5 18.5q25 20 46.5 40.5t37.5 47.5q63 104 109.5 214t67.5 226q2 25 -5 56q-10 47 -44.5 73.5t-90.5 34.5q-17 2 -34 2q-35 0 -70 -8q-68 -14 -131.5 -37.5 t-120.5 -60.5q-8 -4 -15.5 -10.5t-23.5 -1.5q59 57 127 104t154 76q-59 -6 -109.5 -31t-103.5 -43v12q27 16 46 34t15 48q-2 8 6 12.5t19 8.5q35 14 69.5 31.5t73.5 27.5q41 10 84 16.5t84 6.5q39 0 80 -7.5t79 -23.5t68.5 -43t48.5 -66q29 -61 33 -125q1 -15 1 -31 q0 -49 -9 -98q-55 -260 -229 -491q-33 -43 -72 -68q10 35 29.5 57.5t25.5 51.5q-47 -39 -92 -80t-106 -76q22 -3 43 -3q18 0 35 2q7 1 14 1q29 0 55 -16q-4 -10 -14.5 -12.5t-20.5 -10.5q29 -4 57.5 -3t61.5 1q-25 -20 -54.5 -31.5t-61 -18.5t-63.5 -14t-61 -22l181 21 q-12 -12 -27.5 -15.5t-30.5 -7.5q-88 -16 -171 -38.5t-169 -43.5l-166 -37q-33 -6 -44 2.5t-9 36.5q0 4 1 5t1 3q-16 25 -14 45.5zM244 379q16 -43 37 -43q12 0 38 12q-23 6 -40 12.5t-35 18.5z" />
<glyph unicode="r" horiz-adv-x="937" d="M55 535q16 18 26.5 25t51.5 22q27 10 39 23t18 36q14 68 32 134.5t34 131.5q4 10 5 19.5t15 13.5q16 6 33 12t35 6q10 0 12 -3t3 -8t3.5 -9t8.5 -6q14 4 16 13t8 20q6 12 25 12q14 -2 18 -19q12 -27 4 -49q-4 -18 -7 -36.5t-7 -34.5q12 14 18.5 30.5t12.5 32.5 q8 18 11 28.5t10 16.5t22.5 9t48.5 8q-23 -63 -47.5 -123t-46.5 -119q33 6 72.5 24.5t76.5 44t66.5 54t42.5 55.5q-23 -6 -33 -21.5t-33 -21.5q-2 12 5.5 19.5t11.5 15.5q16 25 22 49q4 23 -3 35t-34 24q-37 17 -77 19q-22 1 -44 1q-18 0 -36 -1q-82 -4 -158 -25 q-35 -8 -70 -15t-69 -17q-35 -10 -70 -18.5t-72 -16.5q66 41 109 102q-8 8 -18.5 5t-16.5 3q4 8 8 11q53 31 84 90q10 23 29.5 33t44.5 18q47 14 95 23.5t95 19.5q10 0 19 6q-29 4 -55.5 -1t-53.5 -9q-29 -4 -55.5 -12.5t-58.5 -8.5q6 23 49 36t96 19.5t104.5 8.5t73.5 2 q53 0 104.5 -7.5t104.5 -23.5q39 -11 66 -27q47 -28 73 -62q18 -25 18 -58q0 -13 -3 -27q-12 -82 -57.5 -153.5t-110 -130t-139 -102.5t-146.5 -73q-10 -4 -20.5 -9t-24.5 -11q25 -29 49.5 -58.5t46.5 -58.5q4 -2 5 -4t3 -4l19 -19q2 -4 4 -5t4 -5q14 -16 20.5 -25.5 t9.5 -13.5t3 -7v-7q-2 -20 14.5 -33.5t26.5 -30.5q10 -16 23.5 -29.5t25.5 -29.5q10 -16 23.5 -29.5t21.5 -35.5q-39 23 -67.5 46t-63.5 46q-2 -16 10 -25.5t15 -26.5q-92 41 -168 94.5t-154 108.5q-27 -59 -51.5 -113.5t-46.5 -107.5q-4 25 5 48.5t9 45.5 q-37 -53 -62.5 -111.5t-60.5 -115.5q4 47 9 93t10 97q-23 -18 -29 -41.5t-31 -42.5q10 92 30.5 175t41.5 169q-23 6 -40.5 -1t-35.5 -5q2 8 11.5 11.5t15.5 9.5q-16 2 -29.5 -5t-30.5 -7zM446 604q31 -2 47.5 10.5t32.5 28.5q-20 -8 -42 -15.5t-38 -23.5z" />
<glyph unicode="s" horiz-adv-x="753" d="M-117 174q-6 10 6 14q10 4 18.5 8.5t18.5 8.5q57 23 110.5 51.5t106.5 56.5q-55 -4 -106 -24.5t-111 -36.5q49 41 101.5 64.5t105.5 41.5q74 27 143.5 61t135.5 70q-2 10 -8.5 12.5t-14.5 4.5q-127 33 -254 84q-59 24 -87 60q-22 29 -22 70q0 10 1 21q4 76 44 144.5 t98 127t125.5 104.5t129.5 79q18 10 45 21q23 10 46.5 17t47.5 7q37 0 70 -18q10 8 14 16l8 16q6 16 25 21q6 2 12 2t10 2l48 8q6 2 11 2t11 2q4 0 8 1t6 -1q31 -31 74 -35q12 -2 10 -13t-6 -21q-20 -47 -40.5 -93.5t-43.5 -93.5q-31 -61 -55 -129q-12 -35 -34.5 -65.5 t-45.5 -65.5q-4 27 7.5 47.5t9.5 46.5q-33 -47 -62 -97t-57 -103q-4 18 3 35.5t11 35.5q4 20 7 40t7 40q4 23 7.5 43.5t1.5 42.5q-23 -35 -33 -69.5t-45 -65.5q16 74 30.5 141.5t30.5 137.5q-29 -14 -54.5 -28.5t-45.5 -35.5h14q6 -4 2 -6t-6 -4q-8 -6 -24 -14 q-29 -29 -63 -53.5t-64 -53.5q-49 -41 -82 -90q-9 -15 -8 -27q0 -22 30 -32q51 -20 104.5 -39t112.5 -41q-16 23 -37.5 31t-40.5 22q68 -4 124.5 -39t72.5 -84q12 -39 20 -80q6 -32 5 -65v-17q-2 -41 -31 -67.5t-70 -42.5q-45 -18 -90 -35t-92 -29q-78 -23 -159 -40 t-161 -38q-10 -2 -24 4q43 23 88 35.5t84 38.5q-41 -8 -84 -14t-84 -17q-25 -4 -50.5 -7t-49.5 -13q-10 -2 -17 4zM246 590q92 -37 190 -55q4 -2 13 2q4 4 4 10q-49 16 -101.5 25.5t-105.5 17.5zM291 1032q78 35 145.5 80t141.5 84q-88 -23 -158 -66t-129 -98z" />
<glyph unicode="t" horiz-adv-x="880" d="M97 1012.5q7 17.5 20 23.5q12 4 26.5 7.5t28.5 13.5q-8 4 -17.5 4t-19.5 -1t-19.5 -1t-17.5 6q10 14 27.5 15t21.5 16q2 4 7.5 8t-2.5 8q-12 6 -13.5 14.5t2.5 16.5q6 16 11.5 32.5t17.5 30.5q6 8 15.5 8h19.5q47 4 93 6.5t93 2.5q45 0 51 34q2 12 11 25q4 14 16 14 q10 2 11 -3t3 -11q4 -12 14.5 -12t20.5 2q18 2 29.5 -3t9.5 -24q0 -12 12 -12q10 0 15 10q2 2 2 4q4 35 28.5 42t57.5 5h26.5t17.5 3t15 9.5t21 18.5q6 -20 1 -35.5t-10 -32.5q-6 -25 23 -24q20 2 38.5 3t39.5 1q12 0 16 2h35q6 2 16 2h142q-4 -14 -19.5 -15t-23.5 -12 q10 -10 25.5 -5t29.5 -5q-47 -16 -93 -23t-91 -26h80q0 -18 -13.5 -24.5t-27.5 -10.5q-55 -12 -108.5 -29.5t-111.5 -23.5q-39 -6 -53 -39q-10 -29 -21.5 -56.5t-23.5 -56.5l-90 -227q-23 -53 -45 -115q-8 -20 -27.5 -71t-42 -106.5t-45 -101.5t-35.5 -58q-4 23 6.5 43 t10.5 47q-39 -63 -65.5 -124t-63.5 -120l20 188q-23 -20 -30 -41.5t-25 -38.5q-2 16 3 57.5t16.5 97.5t27.5 121.5t35 131.5q29 102 56.5 202.5t56.5 205.5q-29 4 -53.5 -1.5t-51.5 -9.5q-20 -4 -31 -4l-59 -12q-10 0 -31 -4q-10 -2 -22.5 -3t-18.5 11q-8 12 -1 29.5z" />
<glyph unicode="u" horiz-adv-x="759" d="M-46 386q2 68 19 134q27 125 70 246t96 242l62 147q4 10 9 18.5t11 16.5q23 35 51 48q21 10 53 10q10 0 21 -1q39 -2 39 -39q0 -14 -7 -26.5t-3 -26.5q12 12 18 27.5t17 27.5q14 23 39 13q25 -4 16 -21q-6 -18 -16 -41q-35 -80 -72 -159.5t-72 -159.5q-76 -174 -115 -359 q-6 -27 -6 -52t21 -50q18 -27 43 -27q16 0 34.5 14.5t37 35t33 40t22.5 31.5q41 68 70.5 138.5t64.5 140.5q49 102 98 202.5t90 204.5q2 10 15 19v-11q-1 -29 -9 -55q-10 -31 -14 -63q41 78 79 156.5t95 150.5q-2 -47 -17.5 -92.5t-27.5 -98.5q23 23 32 46.5t26 41.5 q-2 -31 -20.5 -96t-46.5 -149t-62.5 -182.5t-73.5 -194.5t-77 -186.5t-73 -157.5q-6 6 -5 12t4 11t4 11.5t-3 12.5q-10 -14 -19 -28.5t-20 -26.5q-25 -33 -61 -70q-35 -37 -79 -63q-32 -18 -73 -18q-16 0 -34 3q0 -8 4 -11t9 -4l10 -2t5 -7h-22q-96 1 -164 33 q-76 36 -103 108q-23 62 -23 123v13zM168 332q29 -49 63 -49q25 0 50 16q-33 -4 -58.5 8.5t-54.5 24.5zM266 924q10 16 20.5 33.5t20.5 35.5q16 41 37 79t29 81q-14 -14 -31.5 -45t-33 -64.5t-27 -66.5t-15.5 -53z" />
<glyph unicode="v" horiz-adv-x="741" d="M117 716q4 186 8 374v38q0 25 11 43.5t46 22.5q16 2 17 18q0 8 1 14.5t3 14.5q4 27 25.5 38t50.5 3q20 -6 22 -17.5t-2 -25.5q-10 -47 -10 -94v-94q2 -14 2 -26.5t2 -25.5l4 -2q4 45 8 89l8 88q0 20 8.5 38.5t32.5 18.5q10 -2 17.5 -8t9.5 -17q4 -14 3 -28.5t-3 -30.5 q-4 -49 -10 -98.5t-13 -98.5q-4 -25 -6 -49t-4 -51l-24 -199q-2 -25 -4.5 -50.5t-6.5 -49.5q-2 -16 -3 -29.5t9 -29.5q4 10 8.5 17t8.5 15l31 68q80 168 157.5 335t149.5 339q4 10 9 18t11 16q18 25 51 15q12 -6 24.5 -9t27.5 -8q18 -2 20 -14t6 -22q4 0 5.5 -1t5.5 1 q41 6 57 -8.5t2 -47.5q-31 -70 -70 -139q-78 -143 -153.5 -286.5t-161.5 -284.5q-66 -109 -130.5 -214.5t-137.5 -209.5q-2 -2 -13 -17q-2 29 6.5 52.5t19.5 46t22.5 44t17.5 44.5q14 47 31.5 91t33.5 89q-41 -66 -73.5 -132.5t-71.5 -131.5q-14 68 -20.5 136t-20.5 140 q-8 -25 -11 -50.5t-5 -50t-6.5 -49t-14.5 -48.5q0 8 -1 14t-1 12l-4 55q0 6 -1 13.5t-1 13.5q-11 145 -11 290q0 41 1 82z" />
<glyph unicode="w" horiz-adv-x="1204" d="M123 748q4 200 8 401q2 31 12.5 41t44.5 20q16 6 19 19v13t2 15q4 29 13 36t42 7h5q39 0 39 -30q0 -4 -1 -8q-4 -27 -6 -52.5t-4 -54.5q-1 -19 -1 -37q0 -55 9 -104q4 45 7 89t7 91q0 10 2.5 19.5t8.5 17.5q10 20 32 16q20 -4 26 -20q6 -23 1 -51q-8 -78 -16 -154 t-19 -152q-10 -90 -21 -179t-18 -181q25 6 37 29q102 180 188.5 363t172.5 370q4 8 6 15t6 13q4 10 5 21.5t22 9.5q16 0 31.5 -13t13.5 -28q0 -41 -1 -84v-12q0 -37 5 -72q12 45 22.5 90t30.5 88q-10 -203 -31.5 -400.5t-38.5 -399.5l64 131q59 127 117.5 253t117.5 253 q4 10 7.5 18t7.5 16l30 74q4 8 7.5 16.5t7.5 18.5q6 20 18 35q17 21 38 21q10 0 22 -5q18 -12 43 -12q20 -2 22 -15.5t6 -25.5q4 0 8.5 1t8.5 1q11 1 20 1q41 0 41 -27q0 -12 -8 -29q-16 -37 -33.5 -75t-38.5 -73q-78 -141 -153.5 -279.5t-153.5 -277.5q-16 -29 -34.5 -57.5 t-39.5 -56.5q-41 -59 -74.5 -125t-78.5 -125q-14 -20 -27.5 -40t-30.5 -38q0 27 8.5 50.5t18.5 46t22.5 45t18.5 46.5q12 47 32.5 92t37.5 93q-43 -66 -79 -135.5t-77 -139.5q-2 16 -4 32.5t-4 33.5l-17 131q-2 16 -4 32.5t-4 32.5h-10q-10 -45 -12 -91t-15 -93 q-12 92 -18 184t-8 185q-86 -137 -170 -272.5t-176 -270.5q-6 18 -1 36.5t15 35.5q35 66 57.5 134t50.5 136q-14 -2 -16 -10.5t-6 -16.5q-25 -45 -48.5 -90t-45.5 -92q-4 -10 -8.5 -19.5t-18.5 -21.5q-12 72 -17 141.5t-22 141.5q-8 -25 -11 -50.5t-5 -50t-6 -49t-15 -49.5 q0 6 -1 12t-1 11l-4 47q0 6 -1 11t-1 11q-11 156 -11 312q0 44 1 88zM362 424q12 16 17 39q-10 -10 -15.5 -19.5t-1.5 -19.5z" />
<glyph unicode="x" horiz-adv-x="927" d="M-174 117q4 16 17.5 29.5t23.5 29.5q12 16 23.5 33.5t13.5 40.5q2 20 17.5 38.5t31.5 35.5q72 78 142.5 156.5t142.5 158.5q10 10 19 22.5t19 22.5q20 18 11 43q-35 102 -55.5 204.5t-53.5 205.5q-12 35 -12 71q-2 31 31 39l30 6q20 2 32.5 8.5t16.5 26.5q2 14 14.5 23.5 t31.5 13.5q12 0 32 8q14 8 29 8q20 0 37.5 -10t34.5 -14q16 -6 18 -21.5t4 -29.5t2 -27.5t2 -28.5l8 -112q2 -14 2.5 -27.5t2.5 -28.5q2 -10 2 -23t10 -24q16 10 26.5 25.5t20.5 30.5q43 72 95 135t110 125q12 12 23.5 18t31.5 2q25 -6 48.5 -5t47.5 24q-2 -35 -26.5 -56.5 t-38.5 -52.5q57 45 109.5 86t119.5 66q-18 -47 -49 -89t-66 -90q57 25 98.5 59.5t88.5 65.5q6 -12 -1 -18t-11 -10q-115 -129 -226.5 -254t-226.5 -252q-29 -33 -59.5 -64.5t-61.5 -64.5q-23 -18 -18 -49q10 -94 17 -188.5t13 -188.5q2 -23 -3 -45.5t-2 -44.5 q-10 39 -22 75.5t-26 73.5q-4 -31 -4 -62q0 -15 1 -30q3 -45 5 -92q-23 45 -39 90t-45 92v-12q0 -29 8 -53q10 -30 5 -58q-18 33 -29.5 68t-21 70.5t-18.5 73.5t-24 75q-100 -109 -215 -188q-6 4 -2 10t-6 12q-23 -20 -46.5 -39.5t-47.5 -40.5q-25 -20 -49.5 -39.5 t-59.5 -35.5q8 20 22.5 32.5t24.5 28.5q2 6 11 14l20 31q6 6 10 14q-53 -35 -95 -79t-95 -78zM299 1106q4 -66 15.5 -131.5t29.5 -128.5q-8 66 -18.5 130t-26.5 130z" />
<glyph unicode="y" horiz-adv-x="905" d="M145 1194q0 33 7.5 41t44.5 16q23 4 41 10.5t20 32.5q2 10 12.5 17.5t24.5 11.5q8 2 16 3t17 5q16 8 32 8q23 0 41.5 -9t36.5 -15q14 -4 15.5 -17.5t3.5 -25.5q4 -57 8 -113.5t8 -114.5v-6l2 -12q0 -16 8 -31q18 10 27.5 23.5t17.5 28.5q45 72 98.5 137t112.5 129 q20 25 54 18q23 -4 46 -4t46 21q10 -20 -1.5 -30.5t-19.5 -21.5q-2 -4 -4 -6t-4 -6l-18 -22q-4 -4 -5.5 -6.5t-5.5 -6.5q113 90 242 162q-27 -51 -58.5 -98t-66.5 -94q53 23 93 55t85 63q10 -10 3 -15t-11 -9q-117 -129 -231.5 -258t-231.5 -258q-31 -35 -49 -53.5 t-28.5 -35t-19.5 -38t-22 -64.5q-35 -111 -75.5 -218t-75.5 -218q-4 -23 -23 -35q4 47 8 88q2 12 2 24q0 29 -8 58q-29 -63 -55 -125.5t-55 -124.5l-12 2q6 57 12 113.5t12 116.5q-20 -16 -22 -38t-21 -42q-8 20 -4 49q10 90 24.5 178t30.5 178q6 26 6 52q0 43 -16 88 q-23 61 -37 123.5t-28 123.5q-8 35 -18.5 70t-20.5 70q-4 14 -6.5 27.5t-4.5 27.5zM281 1112q-2 -20 1 -53t9 -71t15 -74.5t20 -67.5q-8 68 -18.5 134t-26.5 132z" />
<glyph unicode="z" horiz-adv-x="960" d="M-115 158q2 23 10.5 42t43.5 27q-12 12 -22.5 24.5t-6.5 29.5q4 16 17.5 25t29.5 18q-6 16 -21.5 18t-29.5 6q-18 4 -21 17q0 8 7.5 9t11.5 3l4 2q57 4 91 31.5t62 64.5q240 295 527 545q16 14 31.5 30.5t42.5 24.5q-2 -16 -14.5 -28.5t-18.5 -30.5l180 139 q-10 4 -18.5 3t-18.5 -3q-125 -29 -250 -55.5t-252 -55.5q-25 -10 -51 -6q-12 4 -18 15q-4 14 10 18q10 4 19.5 7t19.5 5q33 10 66.5 17.5t64.5 21.5q-47 -6 -92 -16t-92 -23q-18 -8 -33 -10q-12 -4 -21.5 1t-7.5 16q2 23 5 45t26 39q10 6 14 20l19 47q12 43 69 43 q117 4 231.5 8t231.5 8h23.5t23.5 3h94q12 2 23.5 2h24.5q18 1 37 1q35 0 70 -4q43 -6 87 -6h23q10 0 14 -12q-80 -18 -163 -23.5t-163 -21.5q22 -1 44 -1l78 4q33 4 66 4l56 -3q-4 -25 -29.5 -29t-44.5 -14q4 -12 9 -16q20 -29 12 -52.5t-33 -46.5t-53.5 -41t-50.5 -43 q-14 -14 -21 -28l90 65q-6 -25 -21.5 -45t-35.5 -37q-145 -127 -295 -247.5t-297 -243.5q-10 -8 -19.5 -15.5t-15.5 -21.5q72 0 142 2q23 1 46 1q46 0 91 -3q54 -3 109 -3h28q6 0 12 1q62 0 123 -10q-72 -16 -145.5 -16.5t-145.5 -14.5q66 -11 133 -11h11h11q68 0 138 -12 q-25 -16 -50.5 -24t-53 -12t-53 -9.5t-50.5 -15.5q4 -4 11.5 -2t9.5 -8q-172 -29 -343 -63.5t-339 -82.5q-8 -4 -16.5 -5t-18.5 -3q-29 -6 -29 21zM774 1231q8 0 12 2q-4 0 -6 1t-4 1q-14 0 -2 -4z" />
<glyph unicode="{" horiz-adv-x="808" d="M111 715q-18 14 4 22h4q70 10 113.5 43t80.5 78q51 63 94.5 131t73.5 139q35 78 78 150q-8 -39 -24.5 -74t-26.5 -76q14 4 18 11.5t9 13.5q49 80 94 168q29 57 69.5 98t91 67.5t107.5 41t117 20.5q-90 -35 -146.5 -94t-99.5 -129q37 23 61.5 55.5t67.5 53.5 q-12 -16 -23.5 -35t-27.5 -35q-55 -66 -87 -137.5t-54 -147.5q-20 -63 -38 -108t-41.5 -81t-59.5 -71t-91 -78l6 17q-66 -51 -147 -82q98 -78 116.5 -168t-4.5 -191q-8 -35 -18 -68.5t-20 -68.5q-16 -59 2 -109.5t63 -95.5q4 -2 14 -18q-41 18 -72.5 37.5t-54.5 48.5 q8 -39 37 -65.5t54 -55.5q-66 20 -117 53t-72 95q-10 31 -9 61.5t-1 63.5v49q-12 -8 -8 -18.5t-6 -16.5q0 2 -2 2q0 2 -3 2q4 53 7.5 105.5t7.5 105.5q4 43 0 87t-15 85q-10 37 -33.5 65.5t-70.5 45.5q-12 4 -18 8zM255 307q3 -15 3 -31q6 14 4 28.5t6 29.5q-16 -12 -13 -27 zM266 379q0 -12 1 -20.5t1 -18.5q0 10 2 18.5t-4 20.5zM535 834q37 20 34 55z" />
<glyph unicode="|" horiz-adv-x="571" d="M-51 -37q16 90 49 218t77 273.5t93 299t95 299t87 271.5t68 214q4 10 8 19.5t20 13.5q8 -33 56 -27q16 4 22 -5t4 -21q-2 -14 -3 -27.5t1 -28.5q27 31 37 72q4 18 16.5 24.5t30.5 6.5q8 2 23 2q27 -4 51.5 -1.5t34.5 31.5q10 -6 9 -13t-3 -11q-6 -39 -19.5 -75t-29.5 -71 q-20 -45 -54 -127.5t-74 -184t-83 -213t-82 -213t-71.5 -184.5t-49.5 -128q-39 -98 -80 -193.5t-82 -193.5l-12 -8l27 94q-41 -53 -66.5 -111.5t-60.5 -114.5q4 47 9 93.5t11 97.5q-23 -18 -30 -41t-29 -37z" />
<glyph unicode="}" horiz-adv-x="911" d="M-102 -90q92 35 148 94t99 131q-18 -12 -33.5 -26.5t-29.5 -30t-29.5 -29.5t-38.5 -24q12 18 24.5 35.5t27.5 33.5q55 66 87.5 137.5t55.5 149.5q23 74 55 147q23 59 71 104.5t101 86.5q-2 -4 -2 -8t-2 -9q72 53 146 82q-49 37 -77 79t-39 87t-9 93.5t14 97.5 q8 35 17.5 69.5t19.5 69.5q16 59 -1.5 108.5t-64.5 94.5q0 2 -14 18q41 -18 72.5 -37.5t54.5 -48.5q-8 39 -36 66.5t-52 56.5q74 -25 113.5 -51.5t58 -62t21.5 -86t3 -121.5q12 8 8.5 18t6.5 16q4 -4 4 -6q-4 -53 -7 -105.5t-7 -105.5q-6 -90 14 -170q10 -39 34.5 -66.5 t69.5 -43.5l4 -2l11 -4q2 0 2 -1.5t2 -1.5q20 -14 -2 -22q-2 -2 -6 -2q-68 -8 -113 -41t-80 -78q-53 -66 -95 -132.5t-75 -139.5q-35 -80 -76 -150q8 39 23.5 75t25.5 77q-12 -4 -29.5 -31t-36 -58.5t-32.5 -62t-20 -43.5q-63 -117 -162.5 -165t-224.5 -62zM344 571 q8 14 16.5 27.5t18.5 28.5q-37 -19 -35 -56zM642 1105q-3 -9 5 -26q-2 16 -2 25.5t-2 19.5q2 -10 -1 -19zM643 1124q18 12 15 27.5t-3 30.5q-8 -14 -6 -29t-6 -29z" />
<glyph unicode="~" horiz-adv-x="761" d="M12 545q-4 23 8.5 34t22.5 21t19.5 21.5t23.5 27.5q-20 -4 -29.5 -12t-23.5 -8q-10 10 4 24q35 35 67.5 68t77.5 59q29 16 60.5 26.5t66.5 0.5q33 -10 65 -18.5t54 -32.5q35 -31 74 -31q37 0 80 25l61 36q-20 -37 -55 -59t-70 -45q33 6 60.5 21.5t53 33t52.5 36t57 32.5 q-14 -33 -43 -55q-55 -43 -106 -99q-29 -29 -64.5 -48t-76.5 -19q-33 0 -68 18q-6 4 -30.5 13.5t-53.5 19.5t-53.5 18.5t-34.5 8.5q-18 0 -48 -13.5t-59.5 -32t-54 -39t-37.5 -32.5z" />
<glyph unicode="&#xa1;" horiz-adv-x="561" d="M18 238q35 102 72 202.5t78 200.5q35 86 69.5 171t57.5 175q4 18 19.5 34.5t27.5 33.5q6 8 16.5 10t20.5 4q41 6 35 -33q-6 -49 -14.5 -98t-18.5 -98q-2 -10 -4 -20.5t4 -24.5q23 39 32 79.5t31 81.5q10 -10 9.5 -19t-0.5 -17q-10 -78 -27.5 -155t-40.5 -155 q-23 -86 -43 -172t-33 -176q0 -8 -4 -29q-4 -27 -29 -26q-16 -2 -34.5 -3t-32.5 13q-8 8 -8 14q-2 10 -3 19.5t-3 19.5q-14 -12 -17.5 -26.5t-9.5 -28.5q-14 -39 -41 -39q-14 0 -41 17q-13 6 -27 4q-31 -2 -40 7t-1 34zM303 1174q0 20 7 46.5t19.5 52t26 49.5t25.5 40 q10 14 15 12t18 -22q23 31 57 22q14 -2 19.5 -9t5.5 -16.5v-18.5t2 -17q20 14 29.5 31.5t33.5 27.5q-10 -51 -21.5 -99t-29.5 -95q-8 -20 -25.5 -29.5t-38.5 -5.5q-20 4 -30 15t-15 46q-12 -16 -23 -30.5t-34 -20.5q-35 -8 -41 21z" />
<glyph unicode="&#xa2;" horiz-adv-x="806" d="M-96 395q8 43 18 86q14 61 50 128t82 129.5t98.5 118.5t99.5 95q10 8 20.5 16.5t26.5 14.5q6 -8 -4 -14t-6 -17q41 27 79 51.5t85 45.5q16 55 33.5 109t35.5 108q4 12 15 14q6 -14 26 -12q18 2 15 -13q0 -8 -1.5 -14t-1.5 -12q14 14 21 35q2 14 25 14h10q14 -2 25.5 0 t17.5 14q10 -2 4 -8q-8 -39 -27 -72q-29 -57 -53.5 -114.5t-50.5 -116.5q16 14 23.5 27.5t15.5 27.5q18 25 37 25q16 0 34 -8q12 -4 31 2q27 10 55.5 11t57.5 3q33 0 20 -22q-10 -20 -19 -41t-24 -41q-43 -61 -78.5 -124t-72.5 -126q-16 -29 -43 -60q-4 20 2 35t4 31 q-18 -6 -25 -23q-25 -39 -48 -76.5t-46 -76.5q-23 -43 -59 -78q10 47 25.5 86t17.5 80q-12 0 -16.5 -6t-18.5 -11q4 53 17.5 102.5t13.5 100.5q-16 4 -27.5 -2t-22.5 -10q-111 -59 -176 -136t-94 -169q-8 -25 2 -56q18 -57 105 -69q106 -18 215 20q29 10 56.5 20.5 t57.5 20.5q-29 -35 -69.5 -64.5t-81.5 -64.5q49 12 86 30.5t78 37.5q8 -29 -15 -58q-8 -12 -16 -23t-19 -24q14 -4 23.5 2.5t21.5 4.5q-29 -35 -111.5 -60.5t-207.5 -40.5v-6q-4 -4 -4 -8q10 0 21.5 -1t23.5 -1q-12 -4 -24.5 -6t-26.5 -4q-16 -41 -36 -82l-40 -82 q-2 -2 -6 -4q4 12 6 22t6 21q-20 -25 -33.5 -51.5t-29.5 -53.5q4 23 5 44.5t5 45.5q-10 -10 -14.5 -20t-14.5 -17q8 45 18.5 89.5t22.5 89.5q-86 10 -147.5 51t-79.5 102q-12 45 -4 88z" />
<glyph unicode="&#xa3;" d="M-109 44q-14 15 0 36q8 12 8.5 19t-8.5 18q-35 47 35 57q23 4 43.5 7t38.5 16q0 4 -4 8l-6 6q-27 25 -20.5 48.5t40.5 33.5q23 6 32 17.5t13 27.5q4 18 9.5 37.5t11.5 46.5q-25 -25 -32 -52.5t-34 -50.5q-4 35 7.5 63t7.5 58q-23 0 -42.5 -7t-39.5 -11q-53 -12 -43 29 q6 25 9 50t34 42q10 4 8 10t-2 12q-2 57 61 60h17q27 0 42 1t24.5 6t14.5 17.5t11 32.5q31 100 87 189.5t122 175.5q18 27 49 50t65.5 41.5t72.5 29t71 10.5q31 0 62.5 -8.5t59 -25t48 -40.5t24.5 -57q8 -49 4 -97.5t-16 -95.5q-6 -20 -22 -31q8 70 1 134.5t-65 121.5 q-10 -8 -8 -10q57 -72 39 -158q-6 -33 -15.5 -63.5t-25.5 -61.5q-4 -8 -7 -16t-16 -6q-16 2 -13 11t3 18q2 23 4 43t6 43v25.5t-4 25.5q-14 -27 -17 -54.5t-7 -56.5t-9.5 -55.5t-21.5 -50.5v127q4 59 -6 116q-8 29 -39 13q-16 -8 -41 -40t-48.5 -69t-43 -71.5t-27.5 -51.5 q-12 -29 -26.5 -58.5t-30.5 -62.5q29 -6 56.5 -6t55 2t56 2t55.5 -4q-57 -16 -116.5 -17t-114.5 -20q205 -2 413 7q-20 -10 -40.5 -12.5t-43.5 -4.5q-16 -2 -31.5 -3t-27.5 -15q-6 -8 -19.5 -9t-23.5 -6q-66 -14 -131.5 -27.5t-130.5 -25.5q-25 -2 -35 -22 q-16 -35 -31.5 -73t-31.5 -79q135 2 265 -1t259 1q-66 -14 -134.5 -17t-140.5 -22h273v-10q-59 -10 -120.5 -23.5t-123.5 -27.5q-59 -16 -121.5 -26.5t-124.5 -24.5q84 -2 165 10t167 20q-14 -12 -29.5 -14t-29.5 -4q-268 -45 -531 -123q-10 -4 -17 -6t-18 -4q-29 -2 -43 13 zM127 623q18 10 23.5 25.5t9.5 37.5q-35 -34 -33 -63z" />
<glyph unicode="&#xa5;" horiz-adv-x="978" d="M109 506q-18 27 12 47q12 10 12 27q4 25 17.5 35t44.5 8q20 -4 30 -5q37 -4 54.5 11.5t5.5 44.5q-41 98 -68 197.5t-57 199.5q-10 27 -5 32t38 13q10 4 30 8q25 0 27 21q6 39 61 49q16 4 29.5 7t28.5 3q27 0 50 -15t25 -44q6 -86 14.5 -173t16.5 -175v-7.5t8 -7.5 q12 6 19.5 15.5t13.5 19.5q66 84 125 169t113 177q12 18 26.5 27.5t38.5 3.5q20 -6 35.5 3t32.5 13q-4 -29 -24.5 -49t-33.5 -43q55 45 113.5 84t124.5 74q-29 -49 -59.5 -96t-67.5 -90l10 -7q25 16 49.5 31.5t49.5 32.5l6 -2q-6 -8 -12.5 -15.5t-12.5 -13.5 q-98 -109 -201.5 -210t-212.5 -199q-14 -12 -26 -24.5t-19 -29.5q-20 -45 37 -45q47 -2 91 2t92 0h10t10 -6q-33 -12 -68.5 -16t-76.5 -21l102 -6q-27 -10 -47.5 -11t-40.5 -3q-27 -4 -52.5 -5t-52.5 -3q-25 -2 -28 -21q-4 -18 -9.5 -35.5t-11.5 -36.5q37 -6 73 -0.5 t73 -5.5q-10 -14 -26.5 -16t-33.5 -6q-23 -4 -46 -7t-46 -8q-16 -4 -16 -14q2 -8 8 -8t12 -2h88h28.5t27.5 -6q2 -10 -4.5 -12.5t-14.5 -4.5q-33 -4 -63.5 -10t-63.5 -10q-43 -6 -57 -41q-23 -59 -42.5 -121.5t-39.5 -122.5q-4 -12 -8 -25.5t-19 -27.5q4 47 7.5 91t7.5 89 l-9 2l-114 -258l-10 2q2 53 10 107.5t8 111.5q-18 -16 -19 -34.5t-20 -36.5q-6 55 3 105t9 102q-16 4 -31.5 0.5t-29.5 -3.5q-12 -2 -24.5 0.5t-16.5 12.5q-4 12 6 17t23 13q-25 10 -31 30t-10 38q-4 16 9 29.5t40 15.5q18 4 36.5 3t35.5 1q18 2 29 21.5t1 31.5 q-4 4 -11 4.5t-13 -1.5q-20 -4 -41 -6.5t-41 -2.5q-37 0 -51 23zM281 924q10 -96 36 -189q-4 53 -12 107.5t-20 107.5q-10 -12 -4 -26z" />
<glyph unicode="&#xa7;" horiz-adv-x="827" d="M-119 195q4 10 12.5 12t16.5 2q39 4 76 5t75 -1q74 -4 144.5 4t142.5 25q70 12 127 53q-29 27 -62.5 36t-68.5 17q-31 6 -63.5 8t-65.5 0q-70 -2 -137 33q-10 4 -18.5 9t-12.5 22q27 -12 50.5 -22.5t58.5 -10.5q-23 18 -43.5 33.5t-36.5 34.5q-33 37 -43 86 q-20 -14 -13 -29.5t5 -32.5q-29 35 -31 62.5t20 62.5q23 35 50.5 63.5t62.5 49.5q2 10 -3 14t-9 8q-82 90 -4 183q41 47 97 90t120.5 77.5t133 57t132.5 29.5q72 4 118 -29t50 -96q-16 23 -31.5 46t-62.5 29q47 -45 44 -89t-20 -91q-10 -25 -19 -49.5t-26 -46.5 q-10 10 -7 16t5 15q4 8 5 14t-13 14q-10 4 -7 14.5t1 20.5q-6 70 -78 49q-70 -20 -133.5 -51t-112.5 -80q-10 -8 -18 -24q-10 -27 18 -33q12 -4 21 -4l39 -13q82 -20 149.5 -44.5t134.5 -77.5q-6 31 -22.5 51t-39 33.5t-48 22.5t-49.5 20q74 -2 145 -39q43 -23 65.5 -54.5 t24.5 -67.5t-15.5 -71t-56.5 -61q-10 -6 -18 -12.5t-19 -10.5q-25 -12 -8 -31q25 -29 25 -58.5t-10 -57.5q-43 -121 -140.5 -194t-238.5 -109q-33 -8 -76 -9q-29 0 -59.5 2.5t-61.5 4.5q51 10 102.5 13t96.5 32q-43 -6 -87 -8.5t-89 1.5t-86 14.5t-76 35.5q100 -16 192 -4 q-63 20 -120.5 34.5t-100.5 51.5zM184 623q-18 -45 33 -62q16 -4 30.5 -7t31.5 -7q98 -12 196 -31q6 -2 13.5 -4t11.5 2q6 6 4 12t-6 13q-14 25 -38 40t-52 27q-29 10 -62 16.5t-67 14.5q16 8 30.5 5t32.5 5q-16 4 -28.5 8.5t-24.5 8.5q-2 0 -4 1t-4 1l-17 4q-2 0 -4 1t-4 1 q-23 10 -39 -6q-20 -16 -33 -43zM252 422q66 -20 134.5 -27.5t129.5 -40.5q-14 35 -48 42t-69 14q-73 16 -147 12zM258 498q31 -2 53.5 -7.5t44.5 -1.5q-23 4 -44 10.5t-54 -1.5zM537 1040q29 -2 54 -3t44 -21q16 -18 13 -42t9 -48q0 4 2 6v12q3 2 3 6q0 10 1 21.5t-1 21.5 q-2 41 -18.5 53.5t-63.5 4.5q-10 -2 -21.5 -2t-21.5 -9z" />
<glyph unicode="&#xa8;" horiz-adv-x="481" d="M41 1047q0 14 1 27t3 26q2 14 3 26.5t3 26.5q0 27 35 29q20 2 39.5 4t38.5 -12q6 -9 14 -5q16 10 20.5 3t2.5 -17q0 -10 -6 -22q-16 -35 -35 -68t-41 -64q-2 -4 -4 -5t-4 -3q-10 8 -7.5 17.5t-5.5 19.5q-4 -2 -7 -4t-7 -2q-43 -8 -43 23zM279 1047q0 14 1 27t3 26 q2 14 3 26.5t3 26.5q0 27 35 29q20 2 39.5 4t37.5 -12q7 -9 15 -5q16 10 20 3t2 -17q0 -10 -6 -22q-16 -35 -34.5 -68t-41.5 -64q-2 -4 -4 -5t-4 -3q-10 8 -7 17.5t-5 19.5q-4 -2 -7 -4t-7 -2q-43 -8 -43 23z" />
<glyph unicode="&#xa9;" horiz-adv-x="727" d="M102 1010q6 61 37 114.5t77 92t104.5 61t119.5 22.5q94 0 164 -55t80 -151q4 -45 -9 -91.5t-42 -87.5t-71 -72.5t-95 -49.5q-63 -23 -121 -23q-51 0 -96 16.5t-78 48t-51.5 75.5t-18.5 100zM196.5 1020q-6.5 -41 6.5 -80q16 -53 57 -82t94 -29q47 0 89 20.5t76 54.5 t54.5 77t20.5 88q0 29 -8 51q-14 53 -56.5 80t-93.5 27q-37 0 -80 -17q-43 -16 -76.5 -45.5t-55 -66.5t-28 -78zM250 963q-10 51 16.5 100t79.5 78q35 18 70 18q23 0 43 -6q14 -2 26 -12q18 -12 11 -27q-8 -12 -25 -12h-59q14 -14 30.5 -14.5t28.5 -10.5q-18 -4 -35.5 -7 t-34.5 -7q-51 -14 -75 -47q-16 -20 -7 -34.5t37 -18.5h31q8 2 14.5 3t14.5 1q2 -6 -4 -10.5t0 -10.5q18 4 31.5 13.5t29.5 15.5q-2 -14 -13 -30.5t-28.5 -29t-38 -20.5t-39.5 -8q-35 -2 -65.5 20.5t-38.5 55.5z" />
<glyph unicode="&#xaa;" horiz-adv-x="546" d="M-12 629q12 59 40.5 113.5t45.5 113.5q-12 4 -21.5 -1t-19.5 3q10 23 15 48.5t15 49.5q8 16 23 17q10 2 21.5 3t23.5 3q-10 8 -21.5 6t-21.5 4q16 10 37 6q16 4 20 13q16 35 33 67.5t31 65.5q6 12 12 24.5t15 24.5q10 18 21 22.5t36 1.5q2 6 2 17v14q0 4 -2 10.5t8 10.5 q16 10 33 2q10 -8 17 -8t16 10q4 4 8 4t8 -4q6 -10 14.5 -10h18.5q10 2 17 2h16q16 0 19 -3.5t3 -17.5v-137q0 -20 -1 -41t-3 -41q-2 -18 1 -21.5t26 -7.5q6 -6 -3.5 -6t-3.5 -6q4 -4 9.5 -5t9.5 -5q-2 -6 -8 -9.5t-13 -5.5q-25 -2 -24 -28q-2 -57 -6 -123q-2 -29 -3 -59.5 t-6 -63.5q-12 16 -14 29.5t-8 25.5q-10 -33 -10 -65.5t-6 -67.5q-10 23 -17.5 46.5t-11.5 47.5q-10 -4 -8 -11t-2 -13q-10 6 -11.5 14t-3.5 17q-10 47 -16 92t-10 92q-2 14 -7.5 16t-19.5 -2q-20 -4 -38.5 -8t-39.5 -6q-14 -2 -24 -19q-12 -23 -24.5 -44t-24.5 -44 q-2 -4 -4.5 -8t-10.5 -8q-2 10 5 20.5t5 24.5q-29 -41 -49 -81t-49 -79l25 97q-27 -27 -47.5 -56.5t-36.5 -62.5zM268 1006q10 -4 19.5 -2t19.5 2q12 0 8 10q-2 14 -2 28.5t-4 28.5h-6q-2 -4 -4 -7t-4 -7l-19 -27q-2 -4 -4 -7t-4 -7q-4 -8 0 -12z" />
<glyph unicode="&#xab;" horiz-adv-x="1394" d="M102 446q4 16 16.5 31t26.5 25q14 12 20.5 23.5t-15.5 25.5q-29 20 2 45q16 10 32.5 23.5t42.5 5.5q16 -4 23 6q29 35 64.5 63.5t64.5 63.5q29 33 65.5 60.5t65.5 60.5q23 23 45.5 44t46.5 38q10 8 22.5 14t22.5 -4q18 -16 28.5 -10t22.5 16q14 10 35 14q29 4 48.5 -13 t9.5 -40l-19 -31l6 -4q23 10 45.5 19.5t44.5 19.5q12 4 27 10t25 -6t-3.5 -20t-23.5 -15q-16 -12 -30.5 -24.5t-10.5 -34.5q4 -10 -7 -16.5t-22 -12.5q-98 -49 -191 -103t-192 -102l-22 -12q-23 -12 -4 -31q51 -53 90 -111t94 -108q16 -12 16 -26q-18 -2 -26 11t-29 17 q25 -33 50.5 -61.5t41.5 -67.5q-33 10 -53 25.5t-43 30.5q-23 12 -44.5 26.5t-49.5 32.5q12 -29 31.5 -50.5t21.5 -49.5q-18 4 -29.5 12t-21.5 18q-57 47 -113.5 96.5t-113.5 98.5q-14 12 -20.5 18.5t-14.5 6.5q-4 0 -39 -19q-29 -20 -60 -29zM614 446q4 16 16.5 31t26.5 25 q14 12 20.5 23.5t-15.5 25.5q-29 20 2 45q16 10 32.5 23.5t42.5 5.5q16 -4 23 6q29 35 64.5 63.5t64.5 63.5q29 33 65.5 60.5t65.5 60.5q23 23 45.5 44t46.5 38q10 8 22.5 14t22.5 -4q18 -16 28.5 -10t22.5 16q14 10 35 14q29 4 48.5 -13t9.5 -40l-19 -31l6 -4 q23 10 45.5 19.5t44.5 19.5q12 4 27 10t25 -6t-3.5 -20t-23.5 -15q-16 -12 -30.5 -24.5t-10.5 -34.5q4 -10 -7 -16.5t-22 -12.5q-98 -49 -191 -103t-192 -102l-22 -12q-23 -12 -4 -31q51 -53 90 -111t94 -108q16 -12 16 -26q-18 -2 -26 11t-29 17q25 -33 50.5 -61.5 t41.5 -67.5q-33 10 -53 25.5t-43 30.5q-23 12 -44.5 26.5t-49.5 32.5q12 -29 31.5 -50.5t21.5 -49.5q-18 4 -29.5 12t-21.5 18q-57 47 -113.5 96.5t-113.5 98.5q-14 12 -20.5 18.5t-14.5 6.5q-4 0 -39 -19q-29 -20 -60 -29z" />
<glyph unicode="&#xad;" horiz-adv-x="1099" d="M102 473q-2 47 16.5 66.5t80.5 33.5q4 8 -3.5 8.5t-11.5 2.5q-35 18 -18 47q8 16 16 31.5t19 31.5q10 16 29.5 20.5t37.5 2.5l666 -4q-20 -18 -45 -21.5t-47 -15.5q20 -8 35.5 -7t31.5 1h19l37 -2h18q14 0 14 -9q0 -10 -12 -14q-18 -4 -36.5 -8t-37.5 -8z" />
<glyph unicode="&#xae;" horiz-adv-x="724" d="M102 987q0 66 29 122t75 99t106.5 67.5t123.5 24.5q109 0 176.5 -64t71.5 -175q-6 -66 -36 -119t-76 -92t-104 -59.5t-122 -20.5q-51 0 -95 15.5t-77 44t-52.5 68.5t-19.5 89zM196.5 1016q-6.5 -41 6.5 -80q16 -51 58 -79t93 -28q47 0 89 21.5t76 55.5t54.5 77t20.5 88 q-2 10 -3 20.5t-3 20.5q-10 53 -53 84t-99 31q-41 0 -84 -19q-43 -18 -76.5 -48t-53 -66.5t-26 -77.5zM248 928l12 43q8 35 23.5 65.5t29.5 63.5q6 18 21.5 28.5t38.5 16.5q16 4 31.5 7t31.5 9h-84q0 10 7.5 12.5l13.5 4.5q33 4 64.5 3.5t62.5 -10.5q53 -20 62 -58t-30 -71 q-16 -14 -31.5 -25t-29.5 -26v-2l2 -2q18 -12 20.5 -17t0.5 -28q0 -16 -8.5 -19t-20.5 -1q-37 2 -72 22q-14 8 -26 8q-14 0 -27 -22l-4 -6q-2 0 -2 -2q-14 4 -8 13t-7 13q-8 -10 -15 -18t-15 -17q-10 -14 -27 -10q-8 4 -12 10q-2 4 -2 15zM371 1020q43 8 86 35q8 4 14 9 t2 15q-4 6 -12 9.5t-19 3.5q-12 2 -23 0t-18 -17q-6 -12 -13 -24.5t-17 -30.5z" />
<glyph unicode="&#xaf;" horiz-adv-x="1019" d="M43 780q-2 47 16.5 66.5t79.5 34.5q4 8 -3 8t-11 2q-35 18 -19 47q8 16 16.5 31.5t18.5 31.5t29.5 20.5t38.5 2.5l686 -4q-20 -18 -45 -21.5t-47 -15.5q20 -8 35.5 -7t31.5 1h19l37 -2h18q14 0 14 -8q0 -10 -12 -15q-18 -4 -36.5 -8t-37.5 -8z" />
<glyph unicode="&#xb0;" horiz-adv-x="786" d="M102 885q0 66 29 122t75 99t106.5 67.5t123.5 24.5q109 0 176.5 -64.5t71.5 -175.5q-6 -66 -36 -119t-76 -91.5t-104 -59t-122 -20.5q-51 0 -95 15t-77 44t-52.5 69t-19.5 89zM227 913.5q-4 -34.5 6 -65.5q14 -43 48 -65.5t77 -22.5q39 0 75 17.5t63.5 45t45 64.5 t17.5 74l-6 34q-10 45 -45 70t-82 25q-35 0 -70 -15q-35 -14 -62.5 -39.5t-45 -56.5t-21.5 -65.5z" />
<glyph unicode="&#xb1;" horiz-adv-x="1099" d="M2 43q-2 47 16.5 66.5t79.5 33.5q4 8 -3 8.5t-11 2.5q-35 18 -18 47q8 16 16 31.5t18 31.5t30 20.5t38 2.5l666 -4q-20 -18 -45 -21.5t-48 -15.5q20 -8 36 -7t32 1h18l37 -2h19q14 0 14 -9q0 -10 -12 -14q-18 -4 -37 -8t-37 -8zM145 637q-2 47 16.5 66.5t80.5 33.5 q4 8 -3.5 8t-11.5 3q-35 18 -18 47q8 16 16 31.5t19 31.5q10 16 29.5 20.5t37.5 2.5h35l68 -4h32h39.5t21.5 5t11 15t8 31q6 29 12.5 55.5t16.5 54.5q12 39 31.5 51.5t66.5 8.5h17.5t15.5 8q12 12 25 14q10 4 20 6t21 2q25 0 43 -12q20 -12 15 -27.5t-11 -31.5l-56 -152 q-6 -14 -6 -28q59 -10 117.5 -1t122.5 1q-20 -18 -45 -21.5t-47 -15.5q20 -8 35.5 -7t31.5 1h19l37 -3h18q14 0 14 -8q0 -10 -12 -14q-18 -4 -36.5 -8t-37.5 -8q-59 -10 -114.5 -22.5t-112.5 -22.5q-35 -6 -41 -33q-4 -12 -6 -17l-10 -36q-2 -4 -6 -17q-25 -88 -72 -172 q-16 6 -11 17.5t-3 25.5q-45 -94 -86 -184q-16 72 -4 143.5t28 147.5q-25 -27 -34 -54.5t-36 -54.5q8 49 14.5 95t12.5 93q-86 -10 -167 -27.5t-161 -37.5z" />
<glyph unicode="&#xb2;" horiz-adv-x="569" d="M41 664q10 10 19.5 21t17.5 24q10 12 19 24t5 29q-2 10 5.5 14t17.5 6q16 2 35 21q37 41 71.5 81t69.5 81q23 27 45.5 52t44.5 52q18 18 21 35q4 16 -17 16q-25 0 -41 -12q-23 -12 -43 -24.5t-41 -24.5q14 16 29.5 30.5t32.5 28.5q-16 -2 -31 -16q-25 -20 -50.5 -39 t-47.5 -41q-4 -4 -10.5 -11t-16.5 -3t-9 10t-1 12q-6 27 10 43q8 10 11 19.5t-7 19.5q-4 4 2 14q14 23 38 41.5t52.5 34t57 25.5t53.5 14q45 6 86 -12.5t55 -52.5q8 -27 0 -48q-8 -37 -32.5 -78.5t-56.5 -79.5t-66.5 -71.5t-63.5 -56.5q-2 -2 -4 -3t-4 -3q12 18 29.5 34.5 t29.5 38.5q-4 2 -10 -4q-29 -25 -54.5 -49.5t-58.5 -44.5q-4 -4 -8 -6t-4 -8q55 0 109.5 4t107.5 0q-16 -8 -32.5 -10.5t-32.5 -8.5h57h8t6 -4q4 -6 1 -10t-7 -6q-6 -4 -22 -8q-16 -6 -35 -12.5t-35 -12.5q14 -4 27.5 0t29.5 0q-2 -6 -43 -18.5t-91 -25.5t-95 -23.5 t-57 -14.5q-10 0 -19.5 -2t-15.5 6q-6 10 4 13.5t14 7.5q-2 6 -7 8t-9 6q-10 -4 -18.5 -13t-24.5 -9zM309 1194q35 8 67 15.5t66 2.5q-16 14 -45 15q-43 0 -88 -33z" />
<glyph unicode="&#xb3;" horiz-adv-x="512" d="M43 631q27 25 56.5 44t58.5 46q-25 -4 -42.5 -16.5t-41.5 -18.5q6 12 14 19.5t18 15.5q35 33 75 61.5t81 57.5q12 10 24.5 20t22.5 21q14 20 -12 22q-23 2 -43.5 -2t-42.5 -10q-8 -4 -15.5 -6t-17.5 -4q10 10 24.5 15t26.5 13q-12 2 -21 -2t-20 -6q-10 -4 -18 -7t-16 -7 q-27 -8 -29 12q-2 4 -3 7t-7 7q-20 6 0 17q6 4 13 6t15 6q16 6 25 14q-10 6 -18.5 1t-18.5 -1q10 10 22.5 18.5t24.5 18.5q51 29 88 57.5t78 69.5q14 18 -12 19q-4 0 -9.5 -1t-9.5 -1q-35 -8 -64.5 -21.5t-58.5 -30.5q-4 -4 -8 -7t-12 -3q-4 4 -3 8t-1 9q-4 14 12 24 q12 4 24.5 9t24.5 12q8 4 15.5 6t15.5 8q-10 -2 -19.5 -5t-17.5 -7l-12 -4t-12 -5q-25 -6 -35 7q-12 16 -2 32q6 6 6 9q0 4 -4 2t-4 2t4 4q45 23 92 38t100 11q27 -2 47.5 -10t36.5 -29q0 14 -2 18.5t-14 14.5q23 0 39 -23q18 -27 4 -59q-16 -37 -64.5 -68.5t-83.5 -48.5 q-8 -4 -15 -8t-15 -10q10 -2 16 -3t14 -1q45 -6 70 -35t16 -68q-4 -14 -6 -27.5t-6 -25.5q8 0 9 4t10 4q-12 -20 -25.5 -37.5t-30.5 -31.5q-23 -23 -48 -42.5t-50 -39.5q-6 -6 -13 -12.5t-22 -4.5q-4 2 -9 -2t-9 -8q-10 -4 -21.5 -11t-27.5 -7l30 22q-23 -2 -38 -11t-33 -16 q-16 -8 -35 -14t-35 -14zM270 1157q18 0 21 6q-5 0 -21 -6z" />
<glyph unicode="&#xb4;" horiz-adv-x="364" d="M41 942q16 35 28.5 64.5t30.5 56.5q23 29 45.5 56.5t38.5 58.5q12 23 35 22q12 2 29.5 -4t34 -16.5t29 -22.5t12.5 -22q0 -18 -15 -27q-45 -35 -88 -66.5t-88 -66.5q-6 -4 -14 -8t-21 0q4 14 15.5 24t15.5 29q-29 -16 -45 -36.5t-43 -41.5z" />
<glyph unicode="&#xb7;" horiz-adv-x="317" d="M96 655q0 37 6 70l7 68q2 16 11 26t34 12q29 4 54 5.5t48 -17.5q6 -8 18 -4q23 10 28 2t3 -22q0 -8 -2 -14.5t-6 -14.5q-45 -92 -98 -170q-8 -8 -13 -10q-12 10 -9 22.5t-7 24.5q-2 0 -2 -1t-2 -1l-10 -4q-2 -2 -4 -2q-55 -12 -56 30z" />
<glyph unicode="&#xb8;" horiz-adv-x="333" d="M43 -238q4 12 17.5 9.5t23.5 -7.5q31 -6 59 0q-18 4 -33.5 8.5t-29.5 8.5q-33 10 -27 33q4 12 15.5 14t23.5 2q41 -4 76 8q47 12 49 49q-20 6 -39.5 6.5t-38.5 -2.5q-37 0 -30 27q12 66 55 125q16 23 49 10q16 -4 20.5 -16t-4.5 -27q-8 -16 -16 -29.5t-18 -27.5 q4 -2 8 -6q111 -14 84 -107q-8 -25 -27.5 -47t-43 -37.5t-51.5 -25t-56 -6.5q-10 2 -18.5 3t-18.5 5t-21.5 11t-7.5 19z" />
<glyph unicode="&#xb9;" horiz-adv-x="382" d="M43 659q16 109 45 210.5t57 203.5q-10 4 -17 -1t-17 -3q8 8 19 11t22 12q-10 2 -17.5 -1.5t-15.5 -3.5q-4 0 -7 -1t-8 4q-4 4 -2 7t4 7q4 6 21 14q10 4 19.5 8t21.5 11q-12 2 -19.5 -1t-13.5 -6q-23 -6 -29 7q-4 10 -2 20t11 14q12 4 23.5 9.5t23.5 9.5q10 4 16 6t10 12 q2 4 6.5 6.5t8.5 -6.5q4 -4 8 -2t8 2q51 18 109 31q4 2 14 2q-10 -10 -21.5 -12t-21.5 -10q14 -4 18.5 -2t18.5 12q4 -10 0 -19q-4 -14 -8 -27.5t-11 -27.5q-35 -74 -63.5 -149.5t-56.5 -151.5q-16 -41 -34 -82t-38 -82l-4 -4q-2 10 2 20.5t4 20.5q-18 -29 -31.5 -58.5 t-32.5 -58.5q4 23 5.5 44.5t5.5 47.5q-12 -10 -15.5 -21t-15.5 -22z" />
<glyph unicode="&#xba;" horiz-adv-x="786" d="M102 885q0 66 29 122t75 99t106.5 67.5t123.5 24.5q109 0 176.5 -64.5t71.5 -175.5q-6 -66 -36 -119t-76 -91.5t-104 -59t-122 -20.5q-51 0 -95 15t-77 44t-52.5 69t-19.5 89zM227 913.5q-4 -34.5 6 -65.5q14 -43 48 -65.5t77 -22.5q39 0 75 17.5t63.5 45t45 64.5 t17.5 74l-6 34q-10 45 -45 70t-82 25q-35 0 -70 -15q-35 -14 -62.5 -39.5t-45 -56.5t-21.5 -65.5z" />
<glyph unicode="&#xbb;" horiz-adv-x="1302" d="M-131 256q-10 14 3 21.5t24 15.5q16 12 30.5 23.5t10.5 35.5q-4 10 7 16.5t21 10.5q98 51 191.5 104.5t191.5 102.5l23 12q20 10 4 31q-51 53 -90 110.5t-95 108.5q-16 12 -16 24q18 2 26.5 -11t28.5 -15q-25 31 -49 60.5t-43 68.5q33 -10 53.5 -25.5t42.5 -29.5 q23 -14 44.5 -28.5t50.5 -33.5q-12 31 -32 52.5t-22 50.5q18 -4 29.5 -12.5t22.5 -18.5q14 -12 28.5 -24.5t28.5 -24.5l113 -97q16 -12 29.5 -24t27.5 -25q14 -12 20.5 -18t14.5 -6q6 0 39 18q16 8 29.5 15.5t29.5 13.5q-4 -18 -16.5 -32t-26.5 -26t-20.5 -22t16.5 -27 q16 -10 14 -21.5t-16 -21.5q-16 -12 -32.5 -24.5t-43.5 -5.5q-16 8 -22 -7q-29 -35 -65 -62.5t-64 -62.5q-29 -35 -66 -61.5t-65 -60.5q-39 -43 -93 -82q-10 -6 -22 -12.5t-23 3.5q-18 16 -28.5 9.5t-22.5 -15.5q-18 -14 -35 -14q-29 -4 -48 13.5t-9 39.5q4 8 9 15.5l9 13.5 l-6 6q-23 -10 -45 -20.5t-45 -20.5q-12 -4 -26.5 -9t-24.5 5zM381 256q-10 14 3 21.5t24 15.5q16 12 30.5 23.5t10.5 35.5q-4 10 7 16.5t21 10.5q98 51 191.5 104.5t191.5 102.5l23 12q20 10 4 31q-51 53 -90 110.5t-95 108.5q-16 12 -16 24q18 2 26.5 -11t28.5 -15 q-25 31 -49 60.5t-43 68.5q33 -10 53.5 -25.5t42.5 -29.5q23 -14 44.5 -28.5t50.5 -33.5q-12 31 -32 52.5t-22 50.5q18 -4 29.5 -12.5t22.5 -18.5q14 -12 28.5 -24.5t28.5 -24.5l113 -97q16 -12 29.5 -24t27.5 -25q14 -12 20.5 -18t14.5 -6q6 0 39 18q16 8 29.5 15.5 t29.5 13.5q-4 -18 -16.5 -32t-26.5 -26t-20.5 -22t16.5 -27q16 -10 14 -21.5t-16 -21.5q-16 -12 -32.5 -24.5t-43.5 -5.5q-16 8 -22 -7q-29 -35 -65 -62.5t-64 -62.5q-29 -35 -66 -61.5t-65 -60.5q-39 -43 -93 -82q-10 -6 -22 -12.5t-23 3.5q-18 16 -28.5 9.5t-22.5 -15.5 q-18 -14 -35 -14q-29 -4 -48 13.5t-9 39.5q4 8 9 15.5l9 13.5l-6 6q-23 -10 -45 -20.5t-45 -20.5q-12 -4 -26.5 -9t-24.5 5z" />
<glyph unicode="&#xbc;" horiz-adv-x="1101" d="M41 12q16 47 40.5 89t49.5 87q27 43 52.5 86t41.5 91q-25 -23 -41 -49.5t-43 -49.5q-8 8 -2 19q53 109 113.5 212t126.5 203q72 106 137.5 214t136.5 212q20 29 33.5 61t36.5 60q6 10 12 18.5t15 18.5q29 31 51 31q18 0 53 -21q18 8 29.5 20.5t21.5 26.5q18 23 53 21 q27 -4 36.5 -19.5t-3.5 -35.5q-4 -8 -16 -21q-4 -6 -8 -11t-4 -13q6 -6 18 -2q8 4 14.5 9t16.5 -5q10 -12 0 -29q-23 -39 -44.5 -76t-49.5 -74q-100 -131 -191 -270q-39 -59 -86 -113.5t-84 -113.5q-2 -4 -4 -6t-4 -7l-17 -24q-2 -4 -4 -6t-4 -6q-74 -119 -170 -220 q-29 -35 -53.5 -70.5t-48.5 -70.5q-12 -18 -29 -35q12 57 45 107.5t49 103.5q-66 -88 -132 -174t-144 -168zM145 803q16 109 45 210t58 204q-10 2 -17.5 -2.5t-17.5 -2.5q8 8 19.5 11.5t21.5 11.5q-10 2 -17.5 -2t-15.5 -2q-4 0 -7 -1t-7 3t-2 7t4 7q4 6 20 15q10 4 19.5 8 t21.5 10q-12 2 -19 -1t-13 -5q-23 -6 -29 6q-4 10 -2 20.5t10 14.5l47 18q10 4 16.5 6t10.5 13q2 4 6 6t8 -6q4 -4 8 -3t9 3q27 8 53 16t55 14q4 2 14 2q-10 -10 -21 -12t-22 -10q14 -4 18.5 -2t18.5 12q4 -10 0 -18q-4 -14 -8 -27.5t-10 -28.5q-35 -74 -63.5 -149.5 t-57.5 -151.5q-29 -80 -72 -163l-4 -5q-2 10 2 20.5t4 20.5q-18 -29 -31.5 -58.5t-31.5 -57.5q4 23 5 44t5 48q-12 -10 -15 -21.5t-16 -21.5zM561 199.5q4 9.5 6 17.5t10.5 11t12.5 10q2 4 -2 10t0 14q10 29 25.5 54.5t31.5 52.5q14 16 23.5 33.5t19.5 37.5q16 35 36.5 66 t37.5 63q8 12 22.5 12.5t22.5 -10.5q6 -6 0 -12q-2 -4 -3 -8t-5 -12q12 2 24 14q8 12 13 16q4 4 7 8.5t9 0.5l4 -9q0 -6 -2 -8q-2 -4 -6 -8q-6 -6 2 -10q10 -10 10 -14.5t-8 -14.5q-35 -43 -67.5 -84t-63.5 -84q-4 -4 -7 -8t-5 -14q18 16 31.5 33.5t33.5 27.5 q-10 -12 -20.5 -24.5t-20.5 -26.5q-10 -12 -20.5 -26.5t-20.5 -28.5q27 -4 50.5 -1t48.5 5q6 0 10 8q2 6 6 22q14 61 34.5 123t37.5 123q2 6 4 13.5t12 11.5q4 -16 29 -15q14 0 14 -14q-4 -20 -2 -31q16 18 18 37q4 12 13.5 15.5t19.5 3.5q16 0 28.5 1t18.5 17q6 -8 5 -13 t-3 -12q-4 -16 -9 -29.5t-11 -29.5q-4 -12 -10.5 -24.5t-10.5 -22.5l-39 -98l-9 -22.5t-11 -24.5q0 -2 -1 -2.5t-1 -2.5l-4 -10q-2 -2 -2 -4q-4 -10 8 -10h12t13 -4q-10 -4 -20.5 -4t-20.5 -4v-7h65q-10 -27 -37 -30q-31 -4 -44 -20.5t-23 -39.5q-14 -39 -30.5 -76.5 t-33.5 -76.5l-4 -8l-6 -13l-4 -8q-4 8 0 14.5t0 12.5q-4 -6 -6 -11.5t-6 -11.5l-25 -47q-4 -6 -6 -11t-6 -11q0 29 5 58.5t7 61.5q-10 -10 -14 -21t-15 -20q2 10 3 20.5t3 20.5t3.5 21.5t5.5 21.5q2 18 10 41q4 10 5 22.5t5 24.5q-27 -6 -50.5 -11t-47.5 -13 q-18 -4 -35.5 -10.5t-36.5 -14.5q-4 -2 -11 -4t-13 4q-4 6 1 11.5t9 9.5t8 5t8 3q16 6 33.5 10t34.5 15q-16 0 -31.5 -4.5t-32.5 -8.5q-10 -2 -20 -5t-21 7q-10 8 -6 17.5zM674 193q8 -2 26 8q-14 4 -26 -8zM684 291q14 10 16 24q-14 -10 -16 -24z" />
<glyph unicode="&#xbd;" horiz-adv-x="1079" d="M41 12q16 47 40.5 89t49.5 87q27 43 52.5 86t41.5 91q-25 -23 -41 -49.5t-43 -49.5q-8 8 -2 19q53 109 113.5 212t126.5 203q72 106 137.5 214t136.5 212q20 29 33.5 61t36.5 60q6 10 12 18.5t15 18.5q29 31 51 31q18 0 53 -21q18 8 29.5 20.5t21.5 26.5q18 23 53 21 q27 -4 36.5 -19.5t-3.5 -35.5q-4 -8 -16 -21q-4 -6 -8 -11t-4 -13q6 -6 18 -2q8 4 14.5 9t16.5 -5q10 -12 0 -29q-23 -39 -44.5 -76t-49.5 -74q-100 -131 -191 -270q-39 -59 -86 -113.5t-84 -113.5q-2 -4 -4 -6t-4 -7l-17 -24q-2 -4 -4 -6t-4 -6q-74 -119 -170 -220 q-29 -35 -53.5 -70.5t-48.5 -70.5q-12 -18 -29 -35q12 57 45 107.5t49 103.5q-66 -88 -132 -174t-144 -168zM145 803q16 109 45 210t58 204q-10 2 -17.5 -2.5t-17.5 -2.5q8 8 19.5 11.5t21.5 11.5q-10 2 -17.5 -2t-15.5 -2q-4 0 -7 -1t-7 3t-2 7t4 7q4 6 20 15q10 4 19.5 8 t21.5 10q-12 2 -19 -1t-13 -5q-23 -6 -29 6q-4 10 -2 20.5t10 14.5l47 18q10 4 16.5 6t10.5 13q2 4 6 6t8 -6q4 -4 8 -3t9 3q27 8 53 16t55 14q4 2 14 2q-10 -10 -21 -12t-22 -10q14 -4 18.5 -2t18.5 12q4 -10 0 -18q-4 -14 -8 -27.5t-10 -28.5q-35 -74 -63.5 -149.5 t-57.5 -151.5q-29 -80 -72 -163l-4 -5q-2 10 2 20.5t4 20.5q-18 -29 -31.5 -58.5t-31.5 -57.5q4 23 5 44t5 48q-12 -10 -15 -21.5t-16 -21.5zM520 14q10 10 19.5 21.5t17.5 23.5q10 12 19.5 24.5t5.5 29.5q-2 10 5 14t17 6q16 2 35 21q37 41 71.5 80.5t69.5 80.5 q6 6 11.5 13.5t11.5 13.5l45 51q6 8 11 14.5t11 12.5q18 18 21 35q4 16 -17 16q-25 0 -43 -12l-81 -49q31 35 61 59q-16 -2 -31 -16q-25 -20 -50 -39t-48 -41q-4 -4 -10 -11.5t-17 -3.5q-10 4 -9 10.5t-1 12.5q-6 27 10 43q8 8 11.5 18.5t-7.5 20.5q-4 4 3 14q14 20 37.5 40 t52 35t57.5 25.5t53 14.5q45 8 86 -11.5t56 -54.5q8 -27 0 -47q-8 -39 -33 -80t-56.5 -79.5t-67.5 -72.5t-65 -57l-4 -2q10 16 27.5 33t30.5 39q-4 2 -6.5 0t-6.5 -4q-27 -25 -52.5 -49.5t-57.5 -44.5q-4 -4 -8.5 -6t-4.5 -9q55 0 109.5 4.5t108.5 0.5q-16 -8 -33 -10.5 t-33 -8.5h57h8.5t6.5 -4q4 -6 1 -10t-7 -6q-6 -4 -23 -9l-70 -24q14 -4 27.5 0t30.5 0q-2 -6 -43 -18.5t-92.5 -25.5t-96.5 -23.5t-57 -14.5q-8 -2 -17.5 -4t-15.5 8t4 13t15 8q0 2 -7 8l-10 6q-10 -4 -18 -13.5t-25 -9.5zM788 545q35 8 67 15t67 3q-16 14 -48 15 q-43 0 -86 -33z" />
<glyph unicode="&#xbe;" horiz-adv-x="1101" d="M41 12q16 47 40.5 89t49.5 87q27 43 52.5 86t41.5 91q-25 -23 -41 -49.5t-43 -49.5q-8 8 -2 19q53 109 113.5 212t126.5 203q72 106 137.5 214t136.5 212q20 29 33.5 61t36.5 60q6 10 12 18.5t15 18.5q29 31 51 31q18 0 53 -21q18 8 29.5 20.5t21.5 26.5q18 23 53 21 q27 -4 36.5 -19.5t-3.5 -35.5q-4 -8 -16 -21q-4 -6 -8 -11t-4 -13q6 -6 18 -2q8 4 14.5 9t16.5 -5q10 -12 0 -29q-23 -39 -44.5 -76t-49.5 -74q-100 -131 -191 -270q-39 -59 -86 -113.5t-84 -113.5q-2 -4 -4 -6t-4 -7l-17 -24q-2 -4 -4 -6t-4 -6q-74 -119 -170 -220 q-29 -35 -53.5 -70.5t-48.5 -70.5q-12 -18 -29 -35q12 57 45 107.5t49 103.5q-66 -88 -132 -174t-144 -168zM43 772q27 27 56.5 46.5t58.5 45.5q-25 -4 -42.5 -16t-41.5 -19q6 12 14 19.5t16 15.5q18 16 38 30.5t40 31.5l80 57q12 10 24.5 19.5t22.5 21.5q14 20 -12 23 q-23 2 -43.5 -2.5t-42.5 -10.5q-8 -4 -15.5 -6t-17.5 -4q10 10 24.5 15t26.5 14q-12 2 -21 -2t-20 -7q-10 -4 -18 -7t-16 -7q-27 -8 -29 12q-2 4 -3 7.5t-7 7.5q-18 6 0 16q8 4 28 12q16 6 25 15q-10 6 -18.5 1t-18.5 -1q10 10 22.5 18t24.5 19q53 31 89 58.5t77 68.5 q14 18 -12 18q-14 0 -21 -2q-35 -6 -63.5 -21.5t-57.5 -31.5q-4 -4 -8 -7t-12 -1q-4 4 -3 8t-1 8q-4 14 12 25q12 4 24.5 9t24.5 11l17 6q4 2 7 3t7 5q-10 -2 -19.5 -5t-17.5 -7q-2 0 -3 -1t-3 -1l-12 -4q-2 0 -3 -1t-3 -1q-25 -6 -35 6q-12 16 -2 33q6 6 6 8q0 4 -4 2t-4 2 t4 4q45 23 92 38t100 11q27 -2 47.5 -10t36.5 -29q0 14 -2 18.5t-14 14.5q23 0 39 -22q18 -27 4 -60q-16 -37 -64.5 -68.5t-83.5 -47.5q-8 -4 -15 -8.5t-15 -10.5q10 -2 16 -3t12 -1q47 -6 72 -35t16 -67l-12 -56q8 0 9 5.5t10 5.5v-5q-12 -16 -25.5 -33.5t-30.5 -31.5 q-25 -23 -49 -42.5t-49 -39.5q-6 -6 -13 -13.5t-22 -2.5q-4 0 -9 -3.5t-9 -7.5q-10 -4 -21.5 -11t-27.5 -7l30 22q-23 -2 -38 -11t-33 -15q-18 -8 -36 -15.5t-34 -15.5zM270 1300q18 0 21 7q-5 -1 -21 -7zM561 199.5q4 9.5 6 17.5t10.5 11t12.5 10q2 4 -2 10t0 14 q10 29 25.5 54.5t31.5 52.5q14 16 23.5 33.5t19.5 37.5q16 35 36.5 66t37.5 63q8 12 22.5 12.5t22.5 -10.5q6 -6 0 -12q-2 -4 -3 -8t-5 -12q12 2 24 14q8 12 13 16q4 4 7 8.5t9 0.5l4 -9q0 -6 -2 -8q-2 -4 -6 -8q-6 -6 2 -10q10 -10 10 -14.5t-8 -14.5q-35 -43 -67.5 -84 t-63.5 -84q-4 -4 -7 -8t-5 -14q18 16 31.5 33.5t33.5 27.5q-10 -12 -20.5 -24.5t-20.5 -26.5q-10 -12 -20.5 -26.5t-20.5 -28.5q27 -4 50.5 -1t48.5 5q6 0 10 8q2 6 6 22q14 61 34.5 123t37.5 123q2 6 4 13.5t12 11.5q4 -16 29 -15q14 0 14 -14q-4 -20 -2 -31q16 18 18 37 q4 12 13.5 15.5t19.5 3.5q16 0 28.5 1t18.5 17q6 -8 5 -13t-3 -12q-4 -16 -9 -29.5t-11 -29.5q-4 -12 -10.5 -24.5t-10.5 -22.5l-39 -98l-9 -22.5t-11 -24.5q0 -2 -1 -2.5t-1 -2.5l-4 -10q-2 -2 -2 -4q-4 -10 8 -10h12t13 -4q-10 -4 -20.5 -4t-20.5 -4v-7h65 q-10 -27 -37 -30q-31 -4 -44 -20.5t-23 -39.5q-14 -39 -30.5 -76.5t-33.5 -76.5l-4 -8l-6 -13l-4 -8q-4 8 0 14.5t0 12.5q-4 -6 -6 -11.5t-6 -11.5l-25 -47q-4 -6 -6 -11t-6 -11q0 29 5 58.5t7 61.5q-10 -10 -14 -21t-15 -20q2 10 3 20.5t3 20.5t3.5 21.5t5.5 21.5 q2 18 10 41q4 10 5 22.5t5 24.5q-27 -6 -50.5 -11t-47.5 -13q-18 -4 -35.5 -10.5t-36.5 -14.5q-4 -2 -11 -4t-13 4q-4 6 1 11.5t9 9.5t8 5t8 3q16 6 33.5 10t34.5 15q-16 0 -31.5 -4.5t-32.5 -8.5q-10 -2 -20 -5t-21 7q-10 8 -6 17.5zM674 193q8 -2 26 8q-14 4 -26 -8z M684 291q14 10 16 24q-14 -10 -16 -24z" />
<glyph unicode="&#xbf;" horiz-adv-x="794" d="M102 369q25 82 70 147q80 111 174 212t199 196q23 20 45 36.5t45 34.5q-14 -35 -41 -59.5t-43 -56.5q41 33 85 59.5t91 54.5q-23 -35 -37 -71.5t-35 -71.5l31 20q6 -2 2 -10q-35 -49 -72.5 -94t-78.5 -86q-25 -23 -59 -58.5t-66.5 -76.5t-60 -83t-38.5 -75 q-10 -29 2.5 -39t49.5 -4t80.5 20.5t89 33t86.5 39t73 40.5q4 4 11.5 7t17.5 -3q-20 -25 -46 -44t-56 -42q27 4 44 13.5t33 19.5q16 8 31 8q23 0 25 -33q2 -18 1 -36.5t-22 -34.5q-14 -8 -6 -23q12 -16 4 -26.5t-22 -20.5q-35 -20 -83 -38.5t-101.5 -32t-106.5 -20.5t-96 -7 q-90 6 -140.5 52t-48.5 120l6 55q-14 2 -17 -8t-20 -14zM537 1161q0 14 2 21q23 86 73 159q4 4 8.5 10.5t14.5 2.5q4 -2 6 -8.5t6 -12.5q10 14 23.5 21.5t36.5 1.5q14 -2 18 -9.5t4 -16.5v-18t4 -18q16 16 26.5 34t35.5 28q-8 -47 -19.5 -93t-27.5 -94q-14 -49 -64 -45 q-23 2 -34 13.5t-15 46.5q-16 -12 -23 -27.5t-32 -19.5q-23 -4 -32 0t-11 24z" />
<glyph unicode="&#xc0;" horiz-adv-x="870" d="M-160 39q14 61 38 120.5t48.5 118l49 117t42.5 119.5q-8 4 -18 2t-19.5 -3t-18.5 -1t-17 8q23 47 34 99.5t33 103.5q10 31 41 35q20 4 41 8t43 8q-10 6 -20.5 8t-20.5 2t-20 1t-19 10q31 16 68 12q29 0 39 27q33 70 66.5 137t64.5 139q10 27 22.5 52.5t28.5 49.5 q23 37 41.5 46.5t65.5 5.5q6 16 6 31.5v31.5q2 12 -1 23.5t13 21.5q20 10 37 10q14 0 22 -8q20 -16 33 -16q14 0 29 22q2 8 14 9q8 0 17 -9q10 -18 25.5 -19t31.5 -1h14l29 2h14q29 -2 35 -7t4 -34q-4 -117 -11 -229.5t-20 -229.5q-2 -20 -2 -30.5t4.5 -16.5t14.5 -9t31 -7 q4 -6 1 -8.5t-8.5 -3.5t-7.5 -3t4 -8q4 -6 13.5 -9t15.5 -13q-4 -14 -15.5 -19.5t-23.5 -9.5q-27 -4 -35 -19.5t-10 -37.5q-6 -66 -13 -130.5t-14 -129.5q-6 -61 -10 -125t-16 -129q-20 29 -21.5 58.5t-11.5 55.5q-25 -68 -28 -138.5t-17 -141.5q-14 47 -25.5 97t-15.5 103 q-16 -14 -16 -28.5t-7 -26.5q-16 14 -18 31.5t-4 36.5q-16 94 -21.5 189t-9.5 192q-2 23 -5 29.5t-13 6.5q-8 0 -27 -6q-72 -18 -143 -30q-18 -4 -27.5 -12.5t-17.5 -24.5q-23 -47 -47.5 -91t-48.5 -89q-4 -10 -9.5 -21.5t-17.5 -15.5q-4 23 9 44t11 50q-55 -84 -97 -169 t-93 -165l53 199q-100 -109 -166 -248zM385 825q16 -4 35 -1t35 3q12 0 14 7q6 6 4 14q-2 31 -1 61.5t-5 61.5h-10q-16 -31 -35 -60.5t-35 -58.5q-8 -14 -2 -27zM407 1590.5q-1 10.5 17 26.5q10 10 14.5 22.5t12.5 23.5q20 27 45 26q16 0 37 -14q10 -8 18.5 -15.5 t16.5 -17.5q31 -43 66.5 -85t70.5 -83q6 -6 -4 -12l-94 45q-6 -8 0 -13.5t-2 -15.5q-41 29 -86 48.5t-88 41.5q-23 12 -24 22.5z" />
<glyph unicode="&#xc1;" horiz-adv-x="870" d="M-160 39q14 61 38 120.5t48.5 118l49 117t42.5 119.5q-8 4 -18 2t-19.5 -3t-18.5 -1t-17 8q23 47 34 99.5t33 103.5q10 31 41 35q20 4 41 8t43 8q-10 6 -20.5 8t-20.5 2t-20 1t-19 10q31 16 68 12q29 0 39 27q33 70 66.5 137t64.5 139q10 27 22.5 52.5t28.5 49.5 q23 37 41.5 46.5t65.5 5.5q6 16 6 31.5v31.5q2 12 -1 23.5t13 21.5q20 10 37 10q14 0 22 -8q20 -16 33 -16q14 0 29 22q2 8 14 9q8 0 17 -9q10 -18 25.5 -19t31.5 -1h14l29 2h14q29 -2 35 -7t4 -34q-4 -117 -11 -229.5t-20 -229.5q-2 -20 -2 -30.5t4.5 -16.5t14.5 -9t31 -7 q4 -6 1 -8.5t-8.5 -3.5t-7.5 -3t4 -8q4 -6 13.5 -9t15.5 -13q-4 -14 -15.5 -19.5t-23.5 -9.5q-27 -4 -35 -19.5t-10 -37.5q-6 -66 -13 -130.5t-14 -129.5q-6 -61 -10 -125t-16 -129q-20 29 -21.5 58.5t-11.5 55.5q-25 -68 -28 -138.5t-17 -141.5q-14 47 -25.5 97t-15.5 103 q-16 -14 -16 -28.5t-7 -26.5q-16 14 -18 31.5t-4 36.5q-16 94 -21.5 189t-9.5 192q-2 23 -5 29.5t-13 6.5q-8 0 -27 -6q-72 -18 -143 -30q-18 -4 -27.5 -12.5t-17.5 -24.5q-23 -47 -47.5 -91t-48.5 -89q-4 -10 -9.5 -21.5t-17.5 -15.5q-4 23 9 44t11 50q-55 -84 -97 -169 t-93 -165l53 199q-100 -109 -166 -248zM385 825q16 -4 35 -1t35 3q12 0 14 7q6 6 4 14q-2 31 -1 61.5t-5 61.5h-10q-16 -31 -35 -60.5t-35 -58.5q-8 -14 -2 -27zM582 1456q16 35 28.5 64.5t30.5 56.5q23 29 45.5 56.5t38.5 58.5q12 23 35 22q12 2 29.5 -4t34 -16.5t29 -22.5 t12.5 -22q0 -18 -15 -27q-45 -35 -88 -66.5t-88 -66.5q-6 -4 -14 -8t-21 0q4 14 15.5 24t15.5 29q-29 -16 -45 -36.5t-43 -41.5z" />
<glyph unicode="&#xc2;" horiz-adv-x="870" d="M-160 39q14 61 38 120.5t48.5 118l49 117t42.5 119.5q-8 4 -18 2t-19.5 -3t-18.5 -1t-17 8q23 47 34 99.5t33 103.5q10 31 41 35q20 4 41 8t43 8q-10 6 -20.5 8t-20.5 2t-20 1t-19 10q31 16 68 12q29 0 39 27q33 70 66.5 137t64.5 139q10 27 22.5 52.5t28.5 49.5 q23 37 41.5 46.5t65.5 5.5q6 16 6 31.5v31.5q2 12 -1 23.5t13 21.5q20 10 37 10q14 0 22 -8q20 -16 33 -16q14 0 29 22q2 8 14 9q8 0 17 -9q10 -18 25.5 -19t31.5 -1h14l29 2h14q29 -2 35 -7t4 -34q-4 -117 -11 -229.5t-20 -229.5q-2 -20 -2 -30.5t4.5 -16.5t14.5 -9t31 -7 q4 -6 1 -8.5t-8.5 -3.5t-7.5 -3t4 -8q4 -6 13.5 -9t15.5 -13q-4 -14 -15.5 -19.5t-23.5 -9.5q-27 -4 -35 -19.5t-10 -37.5q-6 -66 -13 -130.5t-14 -129.5q-6 -61 -10 -125t-16 -129q-20 29 -21.5 58.5t-11.5 55.5q-25 -68 -28 -138.5t-17 -141.5q-14 47 -25.5 97t-15.5 103 q-16 -14 -16 -28.5t-7 -26.5q-16 14 -18 31.5t-4 36.5q-16 94 -21.5 189t-9.5 192q-2 23 -5 29.5t-13 6.5q-8 0 -27 -6q-72 -18 -143 -30q-18 -4 -27.5 -12.5t-17.5 -24.5q-23 -47 -47.5 -91t-48.5 -89q-4 -10 -9.5 -21.5t-17.5 -15.5q-4 23 9 44t11 50q-55 -84 -97 -169 t-93 -165l53 199q-100 -109 -166 -248zM385 825q16 -4 35 -1t35 3q12 0 14 7q6 6 4 14q-2 31 -1 61.5t-5 61.5h-10q-16 -31 -35 -60.5t-35 -58.5q-8 -14 -2 -27zM460.5 1497.5q-7.5 16.5 4.5 32.5q35 47 73 93t97 75q18 8 39 12q35 6 45 -18q16 -45 35 -88t27 -90 q2 -12 7 -24.5t1 -29.5q-16 6 -20.5 17.5t-14.5 19.5q-4 0 -5 -5t-3 -9t-6.5 -5t-12.5 7q-10 10 -18 22.5t-17 26.5q-6 12 -11 25.5t-19 25.5q-29 -33 -53.5 -65.5t-61.5 -67.5q4 33 19.5 55.5t23.5 51.5q-37 -25 -55 -60q-16 -35 -49 -24q-18 6 -25.5 22.5z" />
<glyph unicode="&#xc3;" horiz-adv-x="870" d="M-160 39q14 61 38 120.5t48.5 118l49 117t42.5 119.5q-8 4 -18 2t-19.5 -3t-18.5 -1t-17 8q23 47 34 99.5t33 103.5q10 31 41 35q20 4 41 8t43 8q-10 6 -20.5 8t-20.5 2t-20 1t-19 10q31 16 68 12q29 0 39 27q33 70 66.5 137t64.5 139q10 27 22.5 52.5t28.5 49.5 q23 37 41.5 46.5t65.5 5.5q6 16 6 31.5v31.5q2 12 -1 23.5t13 21.5q20 10 37 10q14 0 22 -8q20 -16 33 -16q14 0 29 22q2 8 14 9q8 0 17 -9q10 -18 25.5 -19t31.5 -1h14l29 2h14q29 -2 35 -7t4 -34q-4 -117 -11 -229.5t-20 -229.5q-2 -20 -2 -30.5t4.5 -16.5t14.5 -9t31 -7 q4 -6 1 -8.5t-8.5 -3.5t-7.5 -3t4 -8q4 -6 13.5 -9t15.5 -13q-4 -14 -15.5 -19.5t-23.5 -9.5q-27 -4 -35 -19.5t-10 -37.5q-6 -66 -13 -130.5t-14 -129.5q-6 -61 -10 -125t-16 -129q-20 29 -21.5 58.5t-11.5 55.5q-25 -68 -28 -138.5t-17 -141.5q-14 47 -25.5 97t-15.5 103 q-16 -14 -16 -28.5t-7 -26.5q-16 14 -18 31.5t-4 36.5q-16 94 -21.5 189t-9.5 192q-2 23 -5 29.5t-13 6.5q-8 0 -27 -6q-72 -18 -143 -30q-18 -4 -27.5 -12.5t-17.5 -24.5q-23 -47 -47.5 -91t-48.5 -89q-4 -10 -9.5 -21.5t-17.5 -15.5q-4 23 9 44t11 50q-55 -84 -97 -169 t-93 -165l53 199q-100 -109 -166 -248zM385 825q16 -4 35 -1t35 3q12 0 14 7q6 6 4 14q-2 31 -1 61.5t-5 61.5h-10q-16 -31 -35 -60.5t-35 -58.5q-8 -14 -2 -27zM416 1470q2 5 6 11q16 29 34.5 56.5t43.5 50.5q47 43 106 43q31 0 57.5 -13.5t43.5 -36.5q10 -16 24.5 -17 t32.5 5q20 6 35.5 19.5t32.5 25.5q6 -16 -1 -26.5t-10 -24.5q29 10 39.5 29t28.5 33q6 -12 0 -19.5t-10 -17.5q-10 -16 -21.5 -34t-21.5 -34q-16 -29 -47 -45t-66 -16q-51 0 -88 34q-27 27 -45 27q-10 0 -20.5 -5t-26.5 -15q-4 -2 -6 -4.5t-6 -4.5l-23 -16q-4 -2 -6 -4 t-6 -4q-10 6 -4 11t2 11q-12 2 -19.5 -5t-17.5 -11t-16.5 -10t-18.5 -4q-8 6 -6 11zM699 1487q33 -16 53 2q-12 -2 -24.5 1t-28.5 -3z" />
<glyph unicode="&#xc4;" horiz-adv-x="870" d="M-160 39q14 61 38 120.5t48.5 118l49 117t42.5 119.5q-8 4 -18 2t-19.5 -3t-18.5 -1t-17 8q23 47 34 99.5t33 103.5q10 31 41 35q20 4 41 8t43 8q-10 6 -20.5 8t-20.5 2t-20 1t-19 10q31 16 68 12q29 0 39 27q33 70 66.5 137t64.5 139q10 27 22.5 52.5t28.5 49.5 q23 37 41.5 46.5t65.5 5.5q6 16 6 31.5v31.5q2 12 -1 23.5t13 21.5q20 10 37 10q14 0 22 -8q20 -16 33 -16q14 0 29 22q2 8 14 9q8 0 17 -9q10 -18 25.5 -19t31.5 -1h14l29 2h14q29 -2 35 -7t4 -34q-4 -117 -11 -229.5t-20 -229.5q-2 -20 -2 -30.5t4.5 -16.5t14.5 -9t31 -7 q4 -6 1 -8.5t-8.5 -3.5t-7.5 -3t4 -8q4 -6 13.5 -9t15.5 -13q-4 -14 -15.5 -19.5t-23.5 -9.5q-27 -4 -35 -19.5t-10 -37.5q-6 -66 -13 -130.5t-14 -129.5q-6 -61 -10 -125t-16 -129q-20 29 -21.5 58.5t-11.5 55.5q-25 -68 -28 -138.5t-17 -141.5q-14 47 -25.5 97t-15.5 103 q-16 -14 -16 -28.5t-7 -26.5q-16 14 -18 31.5t-4 36.5q-16 94 -21.5 189t-9.5 192q-2 23 -5 29.5t-13 6.5q-8 0 -27 -6q-72 -18 -143 -30q-18 -4 -27.5 -12.5t-17.5 -24.5q-23 -47 -47.5 -91t-48.5 -89q-4 -10 -9.5 -21.5t-17.5 -15.5q-4 23 9 44t11 50q-55 -84 -97 -169 t-93 -165l53 199q-100 -109 -166 -248zM385 825q16 -4 35 -1t35 3q12 0 14 7q6 6 4 14q-2 31 -1 61.5t-5 61.5h-10q-16 -31 -35 -60.5t-35 -58.5q-8 -14 -2 -27zM475 1508q0 14 1 27t3 26q2 14 3 26.5t3 26.5q0 27 35 29q20 2 39.5 4t38.5 -12q6 -9 14 -5q16 10 20.5 3 t2.5 -17q0 -10 -6 -22q-16 -35 -35 -68t-41 -64q-2 -4 -4 -5t-4 -3q-10 8 -7.5 17.5t-5.5 19.5q-4 -2 -7 -4t-7 -2q-43 -8 -43 23zM713 1508q0 14 1 27t3 26q2 14 3 26.5t3 26.5q0 27 35 29q20 2 39.5 4t37.5 -12q7 -9 15 -5q16 10 20 3t2 -17q0 -10 -6 -22 q-16 -35 -34.5 -68t-41.5 -64q-2 -4 -4 -5t-4 -3q-10 8 -7 17.5t-5 19.5q-4 -2 -7 -4t-7 -2q-43 -8 -43 23z" />
<glyph unicode="&#xc5;" horiz-adv-x="870" d="M-160 39q14 61 38 120.5t48.5 118l49 117t42.5 119.5q-8 4 -18 2t-19.5 -3t-18.5 -1t-17 8q23 47 34 99.5t33 103.5q10 31 41 35q20 4 41 8t43 8q-10 6 -20.5 8t-20.5 2t-20 1t-19 10q31 16 68 12q29 0 39 27q33 70 66.5 137t64.5 139q10 27 22.5 52.5t28.5 49.5 q23 37 41.5 46.5t65.5 5.5q6 16 6 31.5v31.5q2 12 -1 23.5t13 21.5q20 10 37 10q14 0 22 -8q20 -16 33 -16q14 0 29 22q2 8 14 9q8 0 17 -9q10 -18 25.5 -19t31.5 -1h14l29 2h14q29 -2 35 -7t4 -34q-4 -117 -11 -229.5t-20 -229.5q-2 -20 -2 -30.5t4.5 -16.5t14.5 -9t31 -7 q4 -6 1 -8.5t-8.5 -3.5t-7.5 -3t4 -8q4 -6 13.5 -9t15.5 -13q-4 -14 -15.5 -19.5t-23.5 -9.5q-27 -4 -35 -19.5t-10 -37.5q-6 -66 -13 -130.5t-14 -129.5q-6 -61 -10 -125t-16 -129q-20 29 -21.5 58.5t-11.5 55.5q-25 -68 -28 -138.5t-17 -141.5q-14 47 -25.5 97t-15.5 103 q-16 -14 -16 -28.5t-7 -26.5q-16 14 -18 31.5t-4 36.5q-16 94 -21.5 189t-9.5 192q-2 23 -5 29.5t-13 6.5q-8 0 -27 -6q-72 -18 -143 -30q-18 -4 -27.5 -12.5t-17.5 -24.5q-23 -47 -47.5 -91t-48.5 -89q-4 -10 -9.5 -21.5t-17.5 -15.5q-4 23 9 44t11 50q-55 -84 -97 -169 t-93 -165l53 199q-100 -109 -166 -248zM385 825q16 -4 35 -1t35 3q12 0 14 7q6 6 4 14q-2 31 -1 61.5t-5 61.5h-10q-16 -31 -35 -60.5t-35 -58.5q-8 -14 -2 -27zM528 1565.5q2 39.5 22.5 73.5t57.5 57.5t86 27.5q31 4 57.5 -5t45 -26.5t26.5 -42t2 -51.5q-8 -35 -28.5 -65.5 t-69.5 -42.5q-2 -2 -4 -2q-49 -25 -80 -25q-23 0 -41.5 12.5t-40.5 38.5q-8 -4 -4 -12t-6 -14q-25 37 -23 76.5zM641 1528q24 -25 47 -7v7h-47zM641 1579q-2 -18 9 -26.5t32 -2.5q16 4 28 16q27 37 33 76q8 23 -14 29q-14 6 -23.5 2t-17.5 -12q-20 -16 -29.5 -38t-17.5 -44z " />
<glyph unicode="&#xc6;" horiz-adv-x="1353" d="M-160 23q14 61 38 120.5t48.5 117.5t49 117.5t42.5 121.5q-18 6 -37.5 -2.5t-35.5 6.5q23 47 35 100t32 103q14 33 41 34q20 6 41 9.5t43 7.5q-8 6 -18 8t-20.5 2t-20.5 1t-19 9q29 14 66 15q29 -4 39 24q33 70 67.5 138.5t63.5 140.5q10 25 23.5 50t27.5 50 q10 18 19.5 29.5t21.5 17.5t27.5 7t40.5 -1q4 16 4 30.5t2 31.5q0 12 -2 23.5t14 21.5q16 8 32.5 10t26.5 -6q20 -16 33 -17q12 0 27 21q6 8 16 8q8 0 15 -8q10 -18 25.5 -19.5t31.5 -1.5h8l17 3h8q10 16 28 16q96 2 189.5 12t189.5 8q41 0 81 -1t81 -3q53 -2 105.5 -4 t105.5 0h19.5t21.5 -14l-229 -84q43 -10 81.5 -9t79.5 -1q-27 -18 -109.5 -51t-188 -67t-216 -66t-190.5 -50v-16v-8l-2 -15v-8q10 -4 15 -3t11 11q12 23 29 23q12 0 25 -12q6 -6 12 -6.5t12 0.5t13.5 1t13.5 -4q-18 -47 -36.5 -95t-37.5 -97q14 0 16.5 7t6.5 13 q16 39 34.5 76t34.5 74q4 6 7.5 13t7.5 13q4 8 10 12.5t14 0.5t6 -10.5t-4 -12.5l-61 -135q-4 -10 -9.5 -22.5t-11.5 -28.5q78 -4 152 11t154 26q-29 -27 -61 -33t-62 -23q47 -8 91 1.5t95 0.5q-39 -35 -71.5 -63.5t-78.5 -42.5q-66 -20 -132 -41t-134 -33q-47 -8 -63 -51 l-13 -31l-26 -61l-12 -31q-2 -10 -3.5 -19.5t-1.5 -19.5l-6 -55q127 29 252 48.5t258 23.5q-43 -35 -86 -52.5t-84 -35.5q49 -4 99.5 8t105.5 14q-29 -25 -58.5 -40t-58.5 -34q4 -6 9.5 -5t11.5 2t11 2t9 -3q-25 -18 -84 -43.5t-136 -53.5t-165 -54.5t-172 -48.5 q-2 -23 -4 -47.5t-6 -47.5q-8 23 -13 42.5t-12 41.5q-100 -25 -179 -39t-111 -8q12 14 27.5 20.5t31.5 12.5q10 4 17.5 10t11.5 17q4 8 5 14t-11 12q-39 23 -9 49q18 18 17 45q-10 45 39 58q37 8 51 31.5t20 56.5q2 8 3 16t3 19q-2 37 -3 74.5t-3 74.5h-2q-49 -2 -51 29 q-4 33 23 55l-19 -6q-72 -18 -143 -31q-18 -4 -27.5 -12t-17.5 -25q-47 -92 -96 -180q-4 -10 -8.5 -20.5t-18.5 -16.5q-4 23 9 44.5t13 50.5q-57 -84 -99 -169t-93 -165l53 198q-100 -109 -166 -247zM387 809q16 -4 34 -1t36 3q10 0 12 6q6 6 4 14q-2 31 -1 62t-3 61h-12 l-68 -118q-10 -14 -2 -27zM764 1053q23 8 45 17t45 20q-41 -1 -88 -11q-2 -8 -2 -26zM778 1315q0 -6 2 -6h2l2 2l-2 2z" />
<glyph unicode="&#xc7;" horiz-adv-x="768" d="M-66 295q-10 63 1.5 124.5t25.5 123.5q16 78 55 170t89.5 182t107.5 172t111 141q10 12 21 24.5t28 20.5q4 -12 -6.5 -20t-6.5 -23q53 43 101.5 87t111.5 73q0 -16 -12 -26.5t-16 -26.5q55 -12 76 -68q18 20 25 40t18 40q18 37 38 37q12 0 33 -12q10 -6 16.5 -4t16.5 6 q27 14 55.5 15t57.5 3q33 0 20 -28q-12 -31 -23.5 -61t-25.5 -58q-47 -88 -88 -176t-82 -181q-10 -23 -21.5 -43t-27.5 -39q-4 29 4 49.5t6 43.5q-12 -6 -16 -14.5t-9 -16.5q-27 -55 -52 -109.5t-52 -107.5q-12 -29 -26.5 -55.5t-38.5 -55.5q14 63 32.5 119.5t22.5 114.5 q-12 2 -16.5 -8.5t-20.5 -14.5q10 74 26.5 144.5t20.5 142.5q-18 4 -29.5 -3t-21.5 -16q-115 -84 -185.5 -192.5t-107.5 -239.5q-8 -37 -2 -77q12 -66 59 -86.5t105 -20.5q41 0 79 10.5t74 26.5q29 14 57.5 29.5t59.5 29.5q-31 -51 -74 -93t-86 -91q49 16 88 43t80 53 q4 -27 -2 -46t-16 -36l-37 -65q12 -6 22.5 2t22.5 6q-37 -61 -152.5 -100t-281.5 -48q39 -10 73.5 -13t71.5 -7q-29 -10 -54.5 -13t-49.5 -3q-104 0 -180 61.5t-93 163.5zM88 -144q4 12 17.5 9.5t23.5 -7.5q31 -6 59 0q-18 4 -33.5 8.5t-29.5 8.5q-33 10 -27 33 q4 12 15.5 14t23.5 2q41 -4 76 8q47 12 49 49q-20 6 -39.5 6.5t-38.5 -2.5q-37 0 -30 27q12 66 55 125q16 23 49 10q16 -4 20.5 -16t-4.5 -27q-8 -16 -16 -29.5t-18 -27.5q4 -2 8 -6q111 -14 84 -107q-8 -25 -27.5 -47t-43 -37.5t-51.5 -25t-56 -6.5q-10 2 -18.5 3t-18.5 5 t-21.5 11t-7.5 19z" />
<glyph unicode="&#xc8;" d="M-176 25q14 14 28.5 20t30.5 12q10 4 18.5 9.5t12.5 15.5t5 15t-11 14q-23 12 -24 22t16 27q20 20 14 45q-6 45 41 55q45 10 58.5 47t19.5 76l16 70q2 10 4 17t4 17q2 4 2 11l7 24q0 2 1 4t1 6q-14 6 -24.5 4.5t-20.5 -1.5q-47 -2 -50 28q-4 20 9.5 40t31.5 24q20 2 38 9 t36 15q12 4 12 15q-12 6 -24.5 3t-24.5 -1q-35 8 -20 41q16 37 59 36q29 2 41 17.5t21 40.5q10 41 24 79t27 79q8 23 26.5 36t40.5 13q16 0 31 -9q18 -10 27 7q14 25 30 24q10 0 23 -12q10 -12 24.5 -6t28.5 -4l-76 -191q14 0 17.5 7.5t7.5 13.5l68 149q4 6 7 13.5t7 13.5 q10 18 27 12q6 -4 5 -10t-5 -12q-14 -35 -28.5 -68t-31.5 -68q-8 -25 -22 -51q78 -4 152.5 11.5t154.5 25.5q-29 -27 -60.5 -33t-62.5 -22q47 -8 91 1t93 1q-37 -35 -70.5 -63.5t-76.5 -43.5q-66 -23 -132.5 -42t-136.5 -31q-45 -8 -63 -54q-23 -53 -46.5 -108t-49.5 -115 q137 29 271 52.5t276 27.5q-43 -35 -87 -52.5t-85 -37.5q51 -4 100 8t106 14q-31 -25 -59.5 -40t-56.5 -31q4 -6 9 -6t10 2t10 3t10 -3q-27 -20 -95.5 -49t-156.5 -60t-186.5 -60.5t-187.5 -51t-158.5 -33t-98.5 -4.5zM68 309q18 18 12 43q-20 -14 -12 -43zM184 1130 q10 35 20.5 71t20.5 71q4 16 7.5 24.5t9.5 13.5t15 6t28 3h21t22 8q-12 8 -25.5 6t-26.5 0q-8 2 -17 2t-7 15q0 20 20 26h11q96 2 190 13.5t191 9.5q41 0 79.5 -1t79.5 -3q53 -4 106.5 -5t106.5 1h19.5t21.5 -15l-231 -84q43 -10 82 -9t80 -1q-20 -14 -80 -38.5 t-139.5 -53.5t-171 -56.5t-174.5 -50t-149.5 -37t-94.5 -14.5q53 20 101 35.5t95 38.5q-35 0 -66.5 -6t-66.5 -15q-6 0 -12 -2l-12 -4q-43 -10 -53.5 0.5t-0.5 50.5zM443 1574.5q-1 10.5 17 26.5q10 10 14.5 22.5t12.5 23.5q20 27 45 26q16 0 37 -14q10 -8 18.5 -15.5 t16.5 -17.5q31 -43 66.5 -85t70.5 -83q6 -6 -4 -12l-94 45q-6 -8 0 -13.5t-2 -15.5q-41 29 -86 48.5t-88 41.5q-23 12 -24 22.5z" />
<glyph unicode="&#xc9;" d="M-176 25q14 14 28.5 20t30.5 12q10 4 18.5 9.5t12.5 15.5t5 15t-11 14q-23 12 -24 22t16 27q20 20 14 45q-6 45 41 55q45 10 58.5 47t19.5 76l16 70q2 10 4 17t4 17q2 4 2 11l7 24q0 2 1 4t1 6q-14 6 -24.5 4.5t-20.5 -1.5q-47 -2 -50 28q-4 20 9.5 40t31.5 24q20 2 38 9 t36 15q12 4 12 15q-12 6 -24.5 3t-24.5 -1q-35 8 -20 41q16 37 59 36q29 2 41 17.5t21 40.5q10 41 24 79t27 79q8 23 26.5 36t40.5 13q16 0 31 -9q18 -10 27 7q14 25 30 24q10 0 23 -12q10 -12 24.5 -6t28.5 -4l-76 -191q14 0 17.5 7.5t7.5 13.5l68 149q4 6 7 13.5t7 13.5 q10 18 27 12q6 -4 5 -10t-5 -12q-14 -35 -28.5 -68t-31.5 -68q-8 -25 -22 -51q78 -4 152.5 11.5t154.5 25.5q-29 -27 -60.5 -33t-62.5 -22q47 -8 91 1t93 1q-37 -35 -70.5 -63.5t-76.5 -43.5q-66 -23 -132.5 -42t-136.5 -31q-45 -8 -63 -54q-23 -53 -46.5 -108t-49.5 -115 q137 29 271 52.5t276 27.5q-43 -35 -87 -52.5t-85 -37.5q51 -4 100 8t106 14q-31 -25 -59.5 -40t-56.5 -31q4 -6 9 -6t10 2t10 3t10 -3q-27 -20 -95.5 -49t-156.5 -60t-186.5 -60.5t-187.5 -51t-158.5 -33t-98.5 -4.5zM68 309q18 18 12 43q-20 -14 -12 -43zM184 1130 q10 35 20.5 71t20.5 71q4 16 7.5 24.5t9.5 13.5t15 6t28 3h21t22 8q-12 8 -25.5 6t-26.5 0q-8 2 -17 2t-7 15q0 20 20 26h11q96 2 190 13.5t191 9.5q41 0 79.5 -1t79.5 -3q53 -4 106.5 -5t106.5 1h19.5t21.5 -15l-231 -84q43 -10 82 -9t80 -1q-20 -14 -80 -38.5 t-139.5 -53.5t-171 -56.5t-174.5 -50t-149.5 -37t-94.5 -14.5q53 20 101 35.5t95 38.5q-35 0 -66.5 -6t-66.5 -15q-6 0 -12 -2l-12 -4q-43 -10 -53.5 0.5t-0.5 50.5zM619 1440q16 35 28.5 64.5t30.5 56.5q23 29 45.5 56.5t38.5 58.5q12 23 35 22q12 2 29.5 -4t34 -16.5 t29 -22.5t12.5 -22q0 -18 -15 -27q-45 -35 -88 -66.5t-88 -66.5q-6 -4 -14 -8t-21 0q4 14 15.5 24t15.5 29q-29 -16 -45 -36.5t-43 -41.5z" />
<glyph unicode="&#xca;" d="M-176 25q14 14 28.5 20t30.5 12q10 4 18.5 9.5t12.5 15.5t5 15t-11 14q-23 12 -24 22t16 27q20 20 14 45q-6 45 41 55q45 10 58.5 47t19.5 76l16 70q2 10 4 17t4 17q2 4 2 11l7 24q0 2 1 4t1 6q-14 6 -24.5 4.5t-20.5 -1.5q-47 -2 -50 28q-4 20 9.5 40t31.5 24q20 2 38 9 t36 15q12 4 12 15q-12 6 -24.5 3t-24.5 -1q-35 8 -20 41q16 37 59 36q29 2 41 17.5t21 40.5q10 41 24 79t27 79q8 23 26.5 36t40.5 13q16 0 31 -9q18 -10 27 7q14 25 30 24q10 0 23 -12q10 -12 24.5 -6t28.5 -4l-76 -191q14 0 17.5 7.5t7.5 13.5l68 149q4 6 7 13.5t7 13.5 q10 18 27 12q6 -4 5 -10t-5 -12q-14 -35 -28.5 -68t-31.5 -68q-8 -25 -22 -51q78 -4 152.5 11.5t154.5 25.5q-29 -27 -60.5 -33t-62.5 -22q47 -8 91 1t93 1q-37 -35 -70.5 -63.5t-76.5 -43.5q-66 -23 -132.5 -42t-136.5 -31q-45 -8 -63 -54q-23 -53 -46.5 -108t-49.5 -115 q137 29 271 52.5t276 27.5q-43 -35 -87 -52.5t-85 -37.5q51 -4 100 8t106 14q-31 -25 -59.5 -40t-56.5 -31q4 -6 9 -6t10 2t10 3t10 -3q-27 -20 -95.5 -49t-156.5 -60t-186.5 -60.5t-187.5 -51t-158.5 -33t-98.5 -4.5zM68 309q18 18 12 43q-20 -14 -12 -43zM184 1130 q10 35 20.5 71t20.5 71q4 16 7.5 24.5t9.5 13.5t15 6t28 3h21t22 8q-12 8 -25.5 6t-26.5 0q-8 2 -17 2t-7 15q0 20 20 26h11q96 2 190 13.5t191 9.5q41 0 79.5 -1t79.5 -3q53 -4 106.5 -5t106.5 1h19.5t21.5 -15l-231 -84q43 -10 82 -9t80 -1q-20 -14 -80 -38.5 t-139.5 -53.5t-171 -56.5t-174.5 -50t-149.5 -37t-94.5 -14.5q53 20 101 35.5t95 38.5q-35 0 -66.5 -6t-66.5 -15q-6 0 -12 -2l-12 -4q-43 -10 -53.5 0.5t-0.5 50.5zM497.5 1480.5q-7.5 16.5 4.5 32.5q35 47 73 93t97 75q18 8 39 12q35 6 45 -18q16 -45 35 -88t27 -90 q2 -12 7 -24.5t1 -29.5q-16 6 -20.5 17.5t-14.5 19.5q-4 0 -5 -5t-3 -9t-6.5 -5t-12.5 7q-10 10 -18 22.5t-17 26.5q-6 12 -11 25.5t-19 25.5q-29 -33 -53.5 -65.5t-61.5 -67.5q4 33 19.5 55.5t23.5 51.5q-37 -25 -55 -60q-16 -35 -49 -24q-18 6 -25.5 22.5z" />
<glyph unicode="&#xcb;" d="M-176 25q14 14 28.5 20t30.5 12q10 4 18.5 9.5t12.5 15.5t5 15t-11 14q-23 12 -24 22t16 27q20 20 14 45q-6 45 41 55q45 10 58.5 47t19.5 76l16 70q2 10 4 17t4 17q2 4 2 11l7 24q0 2 1 4t1 6q-14 6 -24.5 4.5t-20.5 -1.5q-47 -2 -50 28q-4 20 9.5 40t31.5 24q20 2 38 9 t36 15q12 4 12 15q-12 6 -24.5 3t-24.5 -1q-35 8 -20 41q16 37 59 36q29 2 41 17.5t21 40.5q10 41 24 79t27 79q8 23 26.5 36t40.5 13q16 0 31 -9q18 -10 27 7q14 25 30 24q10 0 23 -12q10 -12 24.5 -6t28.5 -4l-76 -191q14 0 17.5 7.5t7.5 13.5l68 149q4 6 7 13.5t7 13.5 q10 18 27 12q6 -4 5 -10t-5 -12q-14 -35 -28.5 -68t-31.5 -68q-8 -25 -22 -51q78 -4 152.5 11.5t154.5 25.5q-29 -27 -60.5 -33t-62.5 -22q47 -8 91 1t93 1q-37 -35 -70.5 -63.5t-76.5 -43.5q-66 -23 -132.5 -42t-136.5 -31q-45 -8 -63 -54q-23 -53 -46.5 -108t-49.5 -115 q137 29 271 52.5t276 27.5q-43 -35 -87 -52.5t-85 -37.5q51 -4 100 8t106 14q-31 -25 -59.5 -40t-56.5 -31q4 -6 9 -6t10 2t10 3t10 -3q-27 -20 -95.5 -49t-156.5 -60t-186.5 -60.5t-187.5 -51t-158.5 -33t-98.5 -4.5zM68 309q18 18 12 43q-20 -14 -12 -43zM184 1130 q10 35 20.5 71t20.5 71q4 16 7.5 24.5t9.5 13.5t15 6t28 3h21t22 8q-12 8 -25.5 6t-26.5 0q-8 2 -17 2t-7 15q0 20 20 26h11q96 2 190 13.5t191 9.5q41 0 79.5 -1t79.5 -3q53 -4 106.5 -5t106.5 1h19.5t21.5 -15l-231 -84q43 -10 82 -9t80 -1q-20 -14 -80 -38.5 t-139.5 -53.5t-171 -56.5t-174.5 -50t-149.5 -37t-94.5 -14.5q53 20 101 35.5t95 38.5q-35 0 -66.5 -6t-66.5 -15q-6 0 -12 -2l-12 -4q-43 -10 -53.5 0.5t-0.5 50.5zM512 1491q0 14 1 27t3 26q2 14 3 26.5t3 26.5q0 27 35 29q20 2 39.5 4t38.5 -12q6 -9 14 -5q16 10 20.5 3 t2.5 -17q0 -10 -6 -22q-16 -35 -35 -68t-41 -64q-2 -4 -4 -5t-4 -3q-10 8 -7.5 17.5t-5.5 19.5q-4 -2 -7 -4t-7 -2q-43 -8 -43 23zM750 1491q0 14 1 27t3 26q2 14 3 26.5t3 26.5q0 27 35 29q20 2 39.5 4t37.5 -12q7 -9 15 -5q16 10 20 3t2 -17q0 -10 -6 -22 q-16 -35 -34.5 -68t-41.5 -64q-2 -4 -4 -5t-4 -3q-10 8 -7 17.5t-5 19.5q-4 -2 -7 -4t-7 -2q-43 -8 -43 23z" />
<glyph unicode="&#xcc;" horiz-adv-x="370" d="M-88 139q63 317 153.5 623.5t188.5 615.5q4 10 8 21.5t21 17.5q8 -39 53 -33q16 4 23.5 -5t2.5 -25q-6 -31 -6 -64q14 18 25.5 40t15.5 44q6 20 18.5 27.5t30.5 9.5h23q27 -4 51.5 0t36.5 37q10 -10 8 -16.5t-2 -14.5q-10 -43 -26.5 -85t-32.5 -83 q-68 -158 -131.5 -315.5t-122.5 -317.5q-43 -115 -90 -225t-97 -223l-10 -10q8 29 15.5 55.5t15.5 52.5q-43 -59 -71.5 -126.5t-67.5 -131.5q8 53 15 107.5t15 113.5q-23 -23 -30.5 -48t-32.5 -42zM208 1601.5q-1 10.5 17 26.5q10 10 14.5 22.5t12.5 23.5q20 27 45 26 q16 0 37 -14q10 -8 18.5 -15.5t16.5 -17.5q31 -43 66.5 -85t70.5 -83q6 -6 -4 -12l-94 45q-6 -8 0 -13.5t-2 -15.5q-41 29 -86 48.5t-88 41.5q-23 12 -24 22.5z" />
<glyph unicode="&#xcd;" horiz-adv-x="370" d="M-88 139q63 317 153.5 623.5t188.5 615.5q4 10 8 21.5t21 17.5q8 -39 53 -33q16 4 23.5 -5t2.5 -25q-6 -31 -6 -64q14 18 25.5 40t15.5 44q6 20 18.5 27.5t30.5 9.5h23q27 -4 51.5 0t36.5 37q10 -10 8 -16.5t-2 -14.5q-10 -43 -26.5 -85t-32.5 -83 q-68 -158 -131.5 -315.5t-122.5 -317.5q-43 -115 -90 -225t-97 -223l-10 -10q8 29 15.5 55.5t15.5 52.5q-43 -59 -71.5 -126.5t-67.5 -131.5q8 53 15 107.5t15 113.5q-23 -23 -30.5 -48t-32.5 -42zM383 1466q16 35 28.5 64.5t30.5 56.5q23 29 45.5 56.5t38.5 58.5 q12 23 35 22q12 2 29.5 -4t34 -16.5t29 -22.5t12.5 -22q0 -18 -15 -27q-45 -35 -88 -66.5t-88 -66.5q-6 -4 -14 -8t-21 0q4 14 15.5 24t15.5 29q-29 -16 -45 -36.5t-43 -41.5z" />
<glyph unicode="&#xce;" horiz-adv-x="370" d="M-88 139q63 317 153.5 623.5t188.5 615.5q4 10 8 21.5t21 17.5q8 -39 53 -33q16 4 23.5 -5t2.5 -25q-6 -31 -6 -64q14 18 25.5 40t15.5 44q6 20 18.5 27.5t30.5 9.5h23q27 -4 51.5 0t36.5 37q10 -10 8 -16.5t-2 -14.5q-10 -43 -26.5 -85t-32.5 -83 q-68 -158 -131.5 -315.5t-122.5 -317.5q-43 -115 -90 -225t-97 -223l-10 -10q8 29 15.5 55.5t15.5 52.5q-43 -59 -71.5 -126.5t-67.5 -131.5q8 53 15 107.5t15 113.5q-23 -23 -30.5 -48t-32.5 -42zM261.5 1507.5q-7.5 16.5 4.5 32.5q35 47 73 93t97 75q18 8 39 12 q35 6 45 -18q16 -45 35 -88t27 -90q2 -12 7 -24.5t1 -29.5q-16 6 -20.5 17.5t-14.5 19.5q-4 0 -5 -5t-3 -9t-6.5 -5t-12.5 7q-10 10 -18 22.5t-17 26.5q-6 12 -11 25.5t-19 25.5q-29 -33 -53.5 -65.5t-61.5 -67.5q4 33 19.5 55.5t23.5 51.5q-37 -25 -55 -60q-16 -35 -49 -24 q-18 6 -25.5 22.5z" />
<glyph unicode="&#xcf;" horiz-adv-x="370" d="M-88 139q63 317 153.5 623.5t188.5 615.5q4 10 8 21.5t21 17.5q8 -39 53 -33q16 4 23.5 -5t2.5 -25q-6 -31 -6 -64q14 18 25.5 40t15.5 44q6 20 18.5 27.5t30.5 9.5h23q27 -4 51.5 0t36.5 37q10 -10 8 -16.5t-2 -14.5q-10 -43 -26.5 -85t-32.5 -83 q-68 -158 -131.5 -315.5t-122.5 -317.5q-43 -115 -90 -225t-97 -223l-10 -10q8 29 15.5 55.5t15.5 52.5q-43 -59 -71.5 -126.5t-67.5 -131.5q8 53 15 107.5t15 113.5q-23 -23 -30.5 -48t-32.5 -42zM277 1518q0 14 1 27t3 26q2 14 3 26.5t3 26.5q0 27 35 29q20 2 39.5 4 t38.5 -12q6 -9 14 -5q16 10 20.5 3t2.5 -17q0 -10 -6 -22q-16 -35 -35 -68t-41 -64q-2 -4 -4 -5t-4 -3q-10 8 -7.5 17.5t-5.5 19.5q-4 -2 -7 -4t-7 -2q-43 -8 -43 23zM515 1518q0 14 1 27t3 26q2 14 3 26.5t3 26.5q0 27 35 29q20 2 39.5 4t37.5 -12q7 -9 15 -5q16 10 20 3 t2 -17q0 -10 -6 -22q-16 -35 -34.5 -68t-41.5 -64q-2 -4 -4 -5t-4 -3q-10 8 -7 17.5t-5 19.5q-4 -2 -7 -4t-7 -2q-43 -8 -43 23z" />
<glyph unicode="&#xd0;" horiz-adv-x="870" d="M-102 61q41 27 77.5 54.5t81.5 48.5q31 10 35 45t10.5 66.5t10.5 66.5q-20 -27 -27.5 -61.5t-36.5 -65.5q-6 29 -4 50.5t6 43.5q14 80 31.5 160t38.5 158l-182 -52q-2 47 16 67t80 34q4 8 -3 8t-12 2q-35 18 -18 47q8 16 16.5 31.5t18.5 32.5q10 16 29.5 20t37.5 2h70 q10 33 19.5 66t19.5 65q6 20 25.5 31.5t40.5 11.5q16 0 28 -6q18 -10 29 6q14 25 29 25q10 0 22 -12q10 -10 24.5 -6t28.5 -5q-33 -88 -63 -178h12q6 6 10 21l62 141q6 10 12 23.5t31 13.5q-10 -49 -31.5 -93t-38.5 -89l-6 -19h96q-20 -18 -44.5 -21t-47.5 -16 q20 -8 35.5 -7t32.5 1h18l37 -2h18q14 0 15 -8q0 -10 -13 -14q-2 0 -4 -3h-10q0 -2 -4 -2l-37 -8q-2 0 -4 -2h-10q0 -2 -4 -2l-123 -35q-4 -8 -4 -12l-13 -22q0 -4 -4 -13q-35 -94 -72.5 -187t-78.5 -186q88 59 153.5 129t124.5 152q-23 -4 -32 -17.5t-27 -17.5 q10 23 24.5 41.5t28.5 34.5q66 80 126.5 169t80.5 194q10 63 -17.5 106t-86.5 61q-35 10 -70 10.5t-70 -3.5q-141 -18 -276 -78q-16 -8 -32.5 -15.5t-39.5 -11.5q10 16 24.5 22.5t28.5 14.5q23 10 34.5 26.5t19.5 39.5q4 10 -2 11t-13 5q-6 -12 -18 -15.5t-23 -7.5 q18 23 39 25q16 12 30.5 26.5t18.5 34.5q12 43 44 70t73 44t86 25.5t84 12.5q-80 8 -156.5 -12.5t-154.5 -40.5q31 23 70.5 41t81.5 31.5t85 20.5t82 7q55 0 113.5 -12.5t111 -38t94.5 -65.5t62 -95q41 -115 27 -222.5t-78 -215.5q-100 -172 -231 -314.5t-295 -263.5 q-63 -47 -134 -79.5t-147 -59.5q-29 -8 -55.5 -19.5t-61.5 -11.5l113 78q-41 0 -75.5 -13t-73.5 -18z" />
<glyph unicode="&#xd1;" d="M-92 125q10 57 20.5 107.5t22.5 99.5q37 137 73.5 273t75.5 274q37 125 75 247.5t77 245.5q6 23 18 37q16 16 21 0q2 -23 13 -24t26 -1q25 0 31 -5t1 -29q-2 -18 -5 -37t-7 -37l8 -2l23 49q4 12 9 24.5t9 24.5q8 29 25.5 34t44.5 5q27 -2 51.5 1t40.5 44q6 -33 -1 -56.5 t-15 -45.5q-4 -16 -4 -27.5t24 -15.5q14 -2 17.5 -11.5t3.5 -19.5q0 -20 -1 -39.5t-3 -40.5q-12 -150 -26.5 -300t-20.5 -304q12 10 15 20.5t7 20.5q35 104 61.5 210.5t61.5 211.5q25 72 46.5 145.5t43.5 145.5q6 16 11 34.5t28 34.5q8 -41 55 -35q16 4 22.5 -5t4.5 -25 q-4 -16 -8 -32.5t0 -37.5q31 43 43 90q8 35 45 35q6 2 20 2q29 -2 54.5 0t39.5 37q10 -10 8.5 -17.5t-3.5 -13.5q-10 -43 -25.5 -83t-32.5 -81q-66 -158 -129 -315.5t-125 -316.5q-43 -115 -90 -225.5t-94 -223.5q-4 -8 -10 -10q2 29 11 53.5t13 52.5q-41 -61 -69.5 -128.5 t-63.5 -133.5q4 51 12.5 101.5t8.5 109.5q-20 -23 -27.5 -44t-26.5 -38q-6 16 -2 29.5t9 25.5q10 41 11 82t-1 82q-4 72 -6 142.5t-7 142.5q-14 -94 -9 -187.5t-5 -187.5q-25 147 -46 294t-28 300q-18 -8 -22 -21.5t-8 -23.5q-47 -123 -93.5 -242.5t-99.5 -240.5 q-16 -35 -31.5 -70t-33.5 -70q-4 23 5 43.5t11 42.5q-43 -66 -71.5 -135t-67.5 -135q6 53 13 106.5t15 114.5q-23 -27 -32 -53.5t-35 -48.5zM483 1486q2 5 6 11q16 29 34.5 56.5t43.5 50.5q47 43 106 43q31 0 57.5 -13.5t43.5 -36.5q10 -16 24.5 -17t32.5 5q20 6 35.5 19.5 t32.5 25.5q6 -16 -1 -26.5t-10 -24.5q29 10 39.5 29t28.5 33q6 -12 0 -19.5t-10 -17.5q-10 -16 -21.5 -34t-21.5 -34q-16 -29 -47 -45t-66 -16q-51 0 -88 34q-27 27 -45 27q-10 0 -20.5 -5t-26.5 -15q-4 -2 -6 -4.5t-6 -4.5l-23 -16q-4 -2 -6 -4t-6 -4q-10 6 -4 11t2 11 q-12 2 -19.5 -5t-17.5 -11t-16.5 -10t-18.5 -4q-8 6 -6 11zM766 1503q33 -16 53 2q-12 -2 -24.5 1t-28.5 -3z" />
<glyph unicode="&#xd2;" horiz-adv-x="817" d="M0 371q2 74 25.5 175t60.5 206.5t82 202t90 157.5q29 41 59 41q12 0 37 -10q12 -6 18.5 -4t16.5 10q18 20 29 20q14 0 22 -26q4 -14 17 -15q35 -12 39 -23t-17 -44q-35 -59 -64.5 -120.5t-62.5 -121.5q-4 -12 -4 -18q16 6 19.5 19.5t11.5 23.5q20 27 31 51q6 -10 2 -18.5 t-9 -14.5q-61 -109 -102 -223.5t-74 -230.5q-14 -43 -2 -89q10 -31 31 -30q14 0 34.5 17.5t41 41t38 47t25.5 35.5q82 135 143.5 274.5t96.5 290.5q6 25 7 50.5t-5 50.5q-20 94 -123 112q-55 10 -108 -6q-72 -16 -135.5 -44t-123.5 -71q-8 -4 -16 -12t-18 -4q8 8 15 15.5 t15 13.5l60 59q8 8 15 14.5t15 14.5q31 29 69 47t75 41q-53 -8 -98.5 -32.5t-96.5 -45.5q-4 14 4.5 19.5t14.5 9.5q45 16 45 63q0 18 10 27.5t25 17.5q35 14 61 29q78 43 158 54.5t162 0.5q68 -10 118.5 -45.5t75.5 -101.5q29 -78 29 -156t-19 -158q-33 -141 -90 -270 t-129 -256q-2 -2 -4 -3t-6 -5q-2 23 9 40t7 40q-20 -25 -37.5 -52.5t-29.5 -56.5q-33 -74 -84 -138t-107 -124q-12 -16 -26 -24q-53 -45 -117 -46q-41 0 -78 23t-57 68q-29 63 -43.5 130.5t-3.5 139.5q8 41 14 84t12 84q-14 -20 -27.5 -57t-23.5 -84.5t-16 -101.5t-9 -113 q-16 35 -19 68.5t-1 66.5zM274 119q57 -3 88 24q35 35 67 74t56 82q-53 -47 -99 -98t-112 -82zM326 750q14 16 20 26.5t2 22.5q-10 -8 -14 -19.5t-8 -29.5zM439 1595.5q-1 10.5 17 26.5q10 10 14.5 22.5t12.5 23.5q20 27 45 26q16 0 37 -14q10 -8 18.5 -15.5t16.5 -17.5 q31 -43 66.5 -85t70.5 -83q6 -6 -4 -12l-94 45q-6 -8 0 -13.5t-2 -15.5q-41 29 -86 48.5t-88 41.5q-23 12 -24 22.5z" />
<glyph unicode="&#xd3;" horiz-adv-x="817" d="M0 371q2 74 25.5 175t60.5 206.5t82 202t90 157.5q29 41 59 41q12 0 37 -10q12 -6 18.5 -4t16.5 10q18 20 29 20q14 0 22 -26q4 -14 17 -15q35 -12 39 -23t-17 -44q-35 -59 -64.5 -120.5t-62.5 -121.5q-4 -12 -4 -18q16 6 19.5 19.5t11.5 23.5q20 27 31 51q6 -10 2 -18.5 t-9 -14.5q-61 -109 -102 -223.5t-74 -230.5q-14 -43 -2 -89q10 -31 31 -30q14 0 34.5 17.5t41 41t38 47t25.5 35.5q82 135 143.5 274.5t96.5 290.5q6 25 7 50.5t-5 50.5q-20 94 -123 112q-55 10 -108 -6q-72 -16 -135.5 -44t-123.5 -71q-8 -4 -16 -12t-18 -4q8 8 15 15.5 t15 13.5l60 59q8 8 15 14.5t15 14.5q31 29 69 47t75 41q-53 -8 -98.5 -32.5t-96.5 -45.5q-4 14 4.5 19.5t14.5 9.5q45 16 45 63q0 18 10 27.5t25 17.5q35 14 61 29q78 43 158 54.5t162 0.5q68 -10 118.5 -45.5t75.5 -101.5q29 -78 29 -156t-19 -158q-33 -141 -90 -270 t-129 -256q-2 -2 -4 -3t-6 -5q-2 23 9 40t7 40q-20 -25 -37.5 -52.5t-29.5 -56.5q-33 -74 -84 -138t-107 -124q-12 -16 -26 -24q-53 -45 -117 -46q-41 0 -78 23t-57 68q-29 63 -43.5 130.5t-3.5 139.5q8 41 14 84t12 84q-14 -20 -27.5 -57t-23.5 -84.5t-16 -101.5t-9 -113 q-16 35 -19 68.5t-1 66.5zM274 119q57 -3 88 24q35 35 67 74t56 82q-53 -47 -99 -98t-112 -82zM326 750q14 16 20 26.5t2 22.5q-10 -8 -14 -19.5t-8 -29.5zM614 1460q16 35 28.5 64.5t30.5 56.5q23 29 45.5 56.5t38.5 58.5q12 23 35 22q12 2 29.5 -4t34 -16.5t29 -22.5 t12.5 -22q0 -18 -15 -27q-45 -35 -88 -66.5t-88 -66.5q-6 -4 -14 -8t-21 0q4 14 15.5 24t15.5 29q-29 -16 -45 -36.5t-43 -41.5z" />
<glyph unicode="&#xd4;" horiz-adv-x="817" d="M0 371q2 74 25.5 175t60.5 206.5t82 202t90 157.5q29 41 59 41q12 0 37 -10q12 -6 18.5 -4t16.5 10q18 20 29 20q14 0 22 -26q4 -14 17 -15q35 -12 39 -23t-17 -44q-35 -59 -64.5 -120.5t-62.5 -121.5q-4 -12 -4 -18q16 6 19.5 19.5t11.5 23.5q20 27 31 51q6 -10 2 -18.5 t-9 -14.5q-61 -109 -102 -223.5t-74 -230.5q-14 -43 -2 -89q10 -31 31 -30q14 0 34.5 17.5t41 41t38 47t25.5 35.5q82 135 143.5 274.5t96.5 290.5q6 25 7 50.5t-5 50.5q-20 94 -123 112q-55 10 -108 -6q-72 -16 -135.5 -44t-123.5 -71q-8 -4 -16 -12t-18 -4q8 8 15 15.5 t15 13.5l60 59q8 8 15 14.5t15 14.5q31 29 69 47t75 41q-53 -8 -98.5 -32.5t-96.5 -45.5q-4 14 4.5 19.5t14.5 9.5q45 16 45 63q0 18 10 27.5t25 17.5q35 14 61 29q78 43 158 54.5t162 0.5q68 -10 118.5 -45.5t75.5 -101.5q29 -78 29 -156t-19 -158q-33 -141 -90 -270 t-129 -256q-2 -2 -4 -3t-6 -5q-2 23 9 40t7 40q-20 -25 -37.5 -52.5t-29.5 -56.5q-33 -74 -84 -138t-107 -124q-12 -16 -26 -24q-53 -45 -117 -46q-41 0 -78 23t-57 68q-29 63 -43.5 130.5t-3.5 139.5q8 41 14 84t12 84q-14 -20 -27.5 -57t-23.5 -84.5t-16 -101.5t-9 -113 q-16 35 -19 68.5t-1 66.5zM274 119q57 -3 88 24q35 35 67 74t56 82q-53 -47 -99 -98t-112 -82zM326 750q14 16 20 26.5t2 22.5q-10 -8 -14 -19.5t-8 -29.5zM493.5 1501.5q-7.5 16.5 4.5 32.5q35 47 73 93t97 75q18 8 39 12q35 6 45 -18q16 -45 35 -88t27 -90q2 -12 7 -24.5 t1 -29.5q-16 6 -20.5 17.5t-14.5 19.5q-4 0 -5 -5t-3 -9t-6.5 -5t-12.5 7q-10 10 -18 22.5t-17 26.5q-6 12 -11 25.5t-19 25.5q-29 -33 -53.5 -65.5t-61.5 -67.5q4 33 19.5 55.5t23.5 51.5q-37 -25 -55 -60q-16 -35 -49 -24q-18 6 -25.5 22.5z" />
<glyph unicode="&#xd5;" horiz-adv-x="817" d="M0 371q2 74 25.5 175t60.5 206.5t82 202t90 157.5q29 41 59 41q12 0 37 -10q12 -6 18.5 -4t16.5 10q18 20 29 20q14 0 22 -26q4 -14 17 -15q35 -12 39 -23t-17 -44q-35 -59 -64.5 -120.5t-62.5 -121.5q-4 -12 -4 -18q16 6 19.5 19.5t11.5 23.5q20 27 31 51q6 -10 2 -18.5 t-9 -14.5q-61 -109 -102 -223.5t-74 -230.5q-14 -43 -2 -89q10 -31 31 -30q14 0 34.5 17.5t41 41t38 47t25.5 35.5q82 135 143.5 274.5t96.5 290.5q6 25 7 50.5t-5 50.5q-20 94 -123 112q-55 10 -108 -6q-72 -16 -135.5 -44t-123.5 -71q-8 -4 -16 -12t-18 -4q8 8 15 15.5 t15 13.5l60 59q8 8 15 14.5t15 14.5q31 29 69 47t75 41q-53 -8 -98.5 -32.5t-96.5 -45.5q-4 14 4.5 19.5t14.5 9.5q45 16 45 63q0 18 10 27.5t25 17.5q35 14 61 29q78 43 158 54.5t162 0.5q68 -10 118.5 -45.5t75.5 -101.5q29 -78 29 -156t-19 -158q-33 -141 -90 -270 t-129 -256q-2 -2 -4 -3t-6 -5q-2 23 9 40t7 40q-20 -25 -37.5 -52.5t-29.5 -56.5q-33 -74 -84 -138t-107 -124q-12 -16 -26 -24q-53 -45 -117 -46q-41 0 -78 23t-57 68q-29 63 -43.5 130.5t-3.5 139.5q8 41 14 84t12 84q-14 -20 -27.5 -57t-23.5 -84.5t-16 -101.5t-9 -113 q-16 35 -19 68.5t-1 66.5zM274 119q57 -3 88 24q35 35 67 74t56 82q-53 -47 -99 -98t-112 -82zM326 750q14 16 20 26.5t2 22.5q-10 -8 -14 -19.5t-8 -29.5zM449 1474q2 5 6 11q16 29 34.5 56.5t43.5 50.5q47 43 106 43q31 0 57.5 -13.5t43.5 -36.5q10 -16 24.5 -17t32.5 5 q20 6 35.5 19.5t32.5 25.5q6 -16 -1 -26.5t-10 -24.5q29 10 39.5 29t28.5 33q6 -12 0 -19.5t-10 -17.5q-10 -16 -21.5 -34t-21.5 -34q-16 -29 -47 -45t-66 -16q-51 0 -88 34q-27 27 -45 27q-10 0 -20.5 -5t-26.5 -15q-4 -2 -6 -4.5t-6 -4.5l-23 -16q-4 -2 -6 -4t-6 -4 q-10 6 -4 11t2 11q-12 2 -19.5 -5t-17.5 -11t-16.5 -10t-18.5 -4q-8 6 -6 11zM732 1491q33 -16 53 2q-12 -2 -24.5 1t-28.5 -3z" />
<glyph unicode="&#xd6;" horiz-adv-x="817" d="M0 371q2 74 25.5 175t60.5 206.5t82 202t90 157.5q29 41 59 41q12 0 37 -10q12 -6 18.5 -4t16.5 10q18 20 29 20q14 0 22 -26q4 -14 17 -15q35 -12 39 -23t-17 -44q-35 -59 -64.5 -120.5t-62.5 -121.5q-4 -12 -4 -18q16 6 19.5 19.5t11.5 23.5q20 27 31 51q6 -10 2 -18.5 t-9 -14.5q-61 -109 -102 -223.5t-74 -230.5q-14 -43 -2 -89q10 -31 31 -30q14 0 34.5 17.5t41 41t38 47t25.5 35.5q82 135 143.5 274.5t96.5 290.5q6 25 7 50.5t-5 50.5q-20 94 -123 112q-55 10 -108 -6q-72 -16 -135.5 -44t-123.5 -71q-8 -4 -16 -12t-18 -4q8 8 15 15.5 t15 13.5l60 59q8 8 15 14.5t15 14.5q31 29 69 47t75 41q-53 -8 -98.5 -32.5t-96.5 -45.5q-4 14 4.5 19.5t14.5 9.5q45 16 45 63q0 18 10 27.5t25 17.5q35 14 61 29q78 43 158 54.5t162 0.5q68 -10 118.5 -45.5t75.5 -101.5q29 -78 29 -156t-19 -158q-33 -141 -90 -270 t-129 -256q-2 -2 -4 -3t-6 -5q-2 23 9 40t7 40q-20 -25 -37.5 -52.5t-29.5 -56.5q-33 -74 -84 -138t-107 -124q-12 -16 -26 -24q-53 -45 -117 -46q-41 0 -78 23t-57 68q-29 63 -43.5 130.5t-3.5 139.5q8 41 14 84t12 84q-14 -20 -27.5 -57t-23.5 -84.5t-16 -101.5t-9 -113 q-16 35 -19 68.5t-1 66.5zM274 119q57 -3 88 24q35 35 67 74t56 82q-53 -47 -99 -98t-112 -82zM326 750q14 16 20 26.5t2 22.5q-10 -8 -14 -19.5t-8 -29.5zM508 1512q0 14 1 27t3 26q2 14 3 26.5t3 26.5q0 27 35 29q20 2 39.5 4t38.5 -12q6 -9 14 -5q16 10 20.5 3t2.5 -17 q0 -10 -6 -22q-16 -35 -35 -68t-41 -64q-2 -4 -4 -5t-4 -3q-10 8 -7.5 17.5t-5.5 19.5q-4 -2 -7 -4t-7 -2q-43 -8 -43 23zM746 1512q0 14 1 27t3 26q2 14 3 26.5t3 26.5q0 27 35 29q20 2 39.5 4t37.5 -12q7 -9 15 -5q16 10 20 3t2 -17q0 -10 -6 -22q-16 -35 -34.5 -68 t-41.5 -64q-2 -4 -4 -5t-4 -3q-10 8 -7 17.5t-5 19.5q-4 -2 -7 -4t-7 -2q-43 -8 -43 23z" />
<glyph unicode="&#xd7;" horiz-adv-x="811" d="M-80 156q23 41 52.5 77.5t59 73.5t58.5 75t49 81l-61 -43q-31 -23 -74 -39q-4 10 0 13t8 7q53 47 105.5 93.5t105.5 93.5q25 23 6 47q-35 47 -68.5 94t-68.5 94q-20 29 -18 44.5t30 37.5q14 10 37 21.5t39 11.5q27 0 47 -33l72 -121q4 -8 8 -17t17 -15q4 14 -2.5 26.5 t-10.5 22.5q-8 27 -17 52.5t-20 49.5q-8 20 -1.5 29.5t32.5 17.5q20 6 29.5 1t17.5 -25q8 -23 13.5 -44.5t11.5 -43.5l24 -80q16 -2 23.5 6t15.5 16q12 10 23.5 20.5t23.5 20.5l95 80q12 10 23 19.5t24 19.5q41 33 73 33q25 0 58 -12q27 -12 20 -35q-4 -10 -8 -19.5 t-10 -17.5q12 -8 16 -10q29 -20 30 -35t-28 -37q-66 -51 -132 -102.5t-134 -102.5q-20 -16 -24.5 -30.5t6.5 -36.5q35 -74 55 -150t43 -154q-41 37 -71.5 78t-65.5 86q2 -25 13 -43t13 -45q-23 29 -43 51.5t-37 44.5q-8 10 -15 18.5t-17 16.5q-23 23 -29 23t-40 -25.5 t-75 -57.5t-75.5 -61.5t-45.5 -37.5q-43 -35 -91 -63t-95 -60z" />
<glyph unicode="&#xd8;" horiz-adv-x="868" d="M-2 354q2 80 23.5 172t53 185.5t71.5 180.5t79 157q14 27 31 47q29 41 59 41q12 0 37 -11q12 -6 18.5 -4t16.5 13q18 18 29 18q14 0 22 -27q2 -10 17 -14q35 -12 39 -23.5t-17 -44.5q-6 -12 -27.5 -50t-45 -81t-41 -79.5t-17.5 -47.5q16 4 19.5 17.5t11.5 23.5 q10 12 17 25.5t14 26.5q6 -10 2 -18.5t-9 -14.5q-61 -109 -102 -222.5t-74 -232.5q-14 -43 -2 -88q10 -31 31 -31q14 0 34.5 17.5t41 41t38 47t23.5 36.5q84 135 145.5 275t96.5 292q14 51 2 98q-20 96 -125 113q-51 8 -109 -4q-70 -16 -133 -44t-123 -71q-8 -6 -16 -14 t-18 -4q29 29 59.5 58.5t60.5 57.5q31 29 69 47.5t73 41.5q-51 -8 -97.5 -33t-95.5 -45q-4 14 3 19t16 9q41 16 45 64q0 18 10 27.5t25 17.5q8 2 16 8l31 12q4 4 7 5.5l7 3.5q96 55 203 59q10 29 19 57.5t20 57.5q4 16 11 28.5t23 22.5q2 -53 48 -43q18 4 22 -8.5t0 -30.5 q-4 -23 -8 -43.5t-6 -42.5q37 55 53 113q8 27 21.5 36t31.5 11h21q27 -4 51 1t41 48q10 -10 7 -20.5t-7 -20.5q-14 -57 -35.5 -111.5t-44.5 -107.5q-4 -12 -8 -19q33 -33 51 -80q29 -78 29 -155.5t-19 -157.5q-33 -141 -91 -270t-130 -254q0 -2 -8 -10q-4 23 8 40t8 39 q-43 -49 -67 -108q-14 -37 -47 -89t-75 -102.5t-89 -89.5t-90 -47q-12 -31 -24.5 -60.5t-27.5 -58.5q0 -2 -12 -14q10 35 20.5 66.5t20.5 62.5h-4q-47 -78 -83 -162t-81 -166l62 291q-27 -29 -38.5 -62.5t-37.5 -56.5q14 53 27.5 105.5t29.5 105.5q-6 10 -12 17.5t-10 17.5 q-29 63 -42.5 131t-2.5 140q8 41 14 84t12 83q-14 -20 -27.5 -57t-23.5 -84t-16.5 -101t-8.5 -114q-16 35 -19 69t-1 66zM305 104q16 0 29.5 6.5t25.5 16.5q35 35 67 74t54 82q-41 -39 -80 -81t-86 -75q-8 -16 -10 -23zM324 733q12 16 19 26.5t3 22.5q-16 -14 -22 -49z" />
<glyph unicode="&#xd9;" horiz-adv-x="765" d="M-52 358.5q7 77.5 25 155.5q37 160 92.5 310.5t118.5 297.5l35 86q4 10 9 20.5t10 20.5q8 20 22 41q23 41 52.5 55.5t76.5 10.5q37 -2 37 -43q-2 -16 -9 -30.5t-5 -31.5q14 12 20 29.5t19 34.5q16 23 38 14q23 -6 17 -24q-4 -12 -9 -24.5t-12 -23.5l-82 -184t-79 -186 q-41 -100 -76 -203.5t-60 -210.5q-8 -31 -9 -61.5t18 -59.5q18 -31 41 -30q16 0 36 20q57 51 99 121q45 78 78.5 160t72.5 163q55 117 109.5 233t101.5 238q2 8 15 21q0 -39 -12.5 -75t-16.5 -75q47 90 89 181.5t103 175.5q-4 -55 -22.5 -107.5t-34.5 -111.5q25 27 35 52 t29 48q-4 -37 -26 -111.5t-54.5 -173t-74.5 -211t-85 -225.5t-87 -216t-81 -181q-6 6 -5 12t4 12.5t5 13.5t-2 15q-47 -74 -106 -145q-41 -41 -85 -70t-108 -18q-2 -10 2 -13.5t10 -4.5t11.5 -3t5.5 -10q-111 -4 -185.5 38t-97.5 128q-20 78 -13 155.5zM158 297 q25 -57 61 -57q23 0 49 18q-35 -4 -59 9.5t-51 29.5zM289 983q16 25 34.5 58.5t36 70.5t30.5 73t20 62q-16 -16 -36 -51t-37.5 -75t-30.5 -77.5t-17 -60.5zM437 1525.5q-1 10.5 17 26.5q10 10 14.5 22.5t12.5 23.5q20 27 45 26q16 0 37 -14q10 -8 18.5 -15.5t16.5 -17.5 q31 -43 66.5 -85t70.5 -83q6 -6 -4 -12l-94 45q-6 -8 0 -13.5t-2 -15.5q-41 29 -86 48.5t-88 41.5q-23 12 -24 22.5z" />
<glyph unicode="&#xda;" horiz-adv-x="765" d="M-52 358.5q7 77.5 25 155.5q37 160 92.5 310.5t118.5 297.5l35 86q4 10 9 20.5t10 20.5q8 20 22 41q23 41 52.5 55.5t76.5 10.5q37 -2 37 -43q-2 -16 -9 -30.5t-5 -31.5q14 12 20 29.5t19 34.5q16 23 38 14q23 -6 17 -24q-4 -12 -9 -24.5t-12 -23.5l-82 -184t-79 -186 q-41 -100 -76 -203.5t-60 -210.5q-8 -31 -9 -61.5t18 -59.5q18 -31 41 -30q16 0 36 20q57 51 99 121q45 78 78.5 160t72.5 163q55 117 109.5 233t101.5 238q2 8 15 21q0 -39 -12.5 -75t-16.5 -75q47 90 89 181.5t103 175.5q-4 -55 -22.5 -107.5t-34.5 -111.5q25 27 35 52 t29 48q-4 -37 -26 -111.5t-54.5 -173t-74.5 -211t-85 -225.5t-87 -216t-81 -181q-6 6 -5 12t4 12.5t5 13.5t-2 15q-47 -74 -106 -145q-41 -41 -85 -70t-108 -18q-2 -10 2 -13.5t10 -4.5t11.5 -3t5.5 -10q-111 -4 -185.5 38t-97.5 128q-20 78 -13 155.5zM158 297 q25 -57 61 -57q23 0 49 18q-35 -4 -59 9.5t-51 29.5zM289 983q16 25 34.5 58.5t36 70.5t30.5 73t20 62q-16 -16 -36 -51t-37.5 -75t-30.5 -77.5t-17 -60.5zM612 1391q16 35 28.5 64.5t30.5 56.5q23 29 45.5 56.5t38.5 58.5q12 23 35 22q12 2 29.5 -4t34 -16.5t29 -22.5 t12.5 -22q0 -18 -15 -27q-45 -35 -88 -66.5t-88 -66.5q-6 -4 -14 -8t-21 0q4 14 15.5 24t15.5 29q-29 -16 -45 -36.5t-43 -41.5z" />
<glyph unicode="&#xdb;" horiz-adv-x="765" d="M-52 358.5q7 77.5 25 155.5q37 160 92.5 310.5t118.5 297.5l35 86q4 10 9 20.5t10 20.5q8 20 22 41q23 41 52.5 55.5t76.5 10.5q37 -2 37 -43q-2 -16 -9 -30.5t-5 -31.5q14 12 20 29.5t19 34.5q16 23 38 14q23 -6 17 -24q-4 -12 -9 -24.5t-12 -23.5l-82 -184t-79 -186 q-41 -100 -76 -203.5t-60 -210.5q-8 -31 -9 -61.5t18 -59.5q18 -31 41 -30q16 0 36 20q57 51 99 121q45 78 78.5 160t72.5 163q55 117 109.5 233t101.5 238q2 8 15 21q0 -39 -12.5 -75t-16.5 -75q47 90 89 181.5t103 175.5q-4 -55 -22.5 -107.5t-34.5 -111.5q25 27 35 52 t29 48q-4 -37 -26 -111.5t-54.5 -173t-74.5 -211t-85 -225.5t-87 -216t-81 -181q-6 6 -5 12t4 12.5t5 13.5t-2 15q-47 -74 -106 -145q-41 -41 -85 -70t-108 -18q-2 -10 2 -13.5t10 -4.5t11.5 -3t5.5 -10q-111 -4 -185.5 38t-97.5 128q-20 78 -13 155.5zM158 297 q25 -57 61 -57q23 0 49 18q-35 -4 -59 9.5t-51 29.5zM289 983q16 25 34.5 58.5t36 70.5t30.5 73t20 62q-16 -16 -36 -51t-37.5 -75t-30.5 -77.5t-17 -60.5zM490.5 1431.5q-7.5 16.5 4.5 32.5q35 47 73 93t97 75q18 8 39 12q35 6 45 -18q16 -45 35 -88t27 -90q2 -12 7 -24.5 t1 -29.5q-16 6 -20.5 17.5t-14.5 19.5q-4 0 -5 -5t-3 -9t-6.5 -5t-12.5 7q-10 10 -18 22.5t-17 26.5q-6 12 -11 25.5t-19 25.5q-29 -33 -53.5 -65.5t-61.5 -67.5q4 33 19.5 55.5t23.5 51.5q-37 -25 -55 -60q-16 -35 -49 -24q-18 6 -25.5 22.5z" />
<glyph unicode="&#xdc;" horiz-adv-x="765" d="M-52 358.5q7 77.5 25 155.5q37 160 92.5 310.5t118.5 297.5l35 86q4 10 9 20.5t10 20.5q8 20 22 41q23 41 52.5 55.5t76.5 10.5q37 -2 37 -43q-2 -16 -9 -30.5t-5 -31.5q14 12 20 29.5t19 34.5q16 23 38 14q23 -6 17 -24q-4 -12 -9 -24.5t-12 -23.5l-82 -184t-79 -186 q-41 -100 -76 -203.5t-60 -210.5q-8 -31 -9 -61.5t18 -59.5q18 -31 41 -30q16 0 36 20q57 51 99 121q45 78 78.5 160t72.5 163q55 117 109.5 233t101.5 238q2 8 15 21q0 -39 -12.5 -75t-16.5 -75q47 90 89 181.5t103 175.5q-4 -55 -22.5 -107.5t-34.5 -111.5q25 27 35 52 t29 48q-4 -37 -26 -111.5t-54.5 -173t-74.5 -211t-85 -225.5t-87 -216t-81 -181q-6 6 -5 12t4 12.5t5 13.5t-2 15q-47 -74 -106 -145q-41 -41 -85 -70t-108 -18q-2 -10 2 -13.5t10 -4.5t11.5 -3t5.5 -10q-111 -4 -185.5 38t-97.5 128q-20 78 -13 155.5zM158 297 q25 -57 61 -57q23 0 49 18q-35 -4 -59 9.5t-51 29.5zM289 983q16 25 34.5 58.5t36 70.5t30.5 73t20 62q-16 -16 -36 -51t-37.5 -75t-30.5 -77.5t-17 -60.5zM506 1442q0 14 1 27t3 26q2 14 3 26.5t3 26.5q0 27 35 29q20 2 39.5 4t38.5 -12q6 -9 14 -5q16 10 20.5 3t2.5 -17 q0 -10 -6 -22q-16 -35 -35 -68t-41 -64q-2 -4 -4 -5t-4 -3q-10 8 -7.5 17.5t-5.5 19.5q-4 -2 -7 -4t-7 -2q-43 -8 -43 23zM744 1442q0 14 1 27t3 26q2 14 3 26.5t3 26.5q0 27 35 29q20 2 39.5 4t37.5 -12q7 -9 15 -5q16 10 20 3t2 -17q0 -10 -6 -22q-16 -35 -34.5 -68 t-41.5 -64q-2 -4 -4 -5t-4 -3q-10 8 -7 17.5t-5 19.5q-4 -2 -7 -4t-7 -2q-43 -8 -43 23z" />
<glyph unicode="&#xdd;" horiz-adv-x="899" d="M176 1294q2 37 9.5 47.5t43.5 18.5q23 6 42.5 13t23.5 38q4 25 37 33q16 2 35 10q16 10 32 10q23 0 40.5 -11t35.5 -19q14 -4 14 -19.5v-30.5l7 -264v-26.5t8 -28.5q18 10 27.5 26.5t19.5 32.5q100 166 225 310q25 29 53 20q25 -6 48.5 -5t46.5 24q8 -23 -3.5 -35.5 t-21.5 -24.5q-10 -14 -19.5 -26.5t-17.5 -28.5q113 104 248 188q-29 -59 -63.5 -114.5t-71.5 -108.5q53 27 96 65.5t90 73.5q8 -10 1 -17t-11 -13q-123 -150 -246 -298.5t-246 -297.5q-33 -41 -52 -62.5t-31.5 -40t-21.5 -45t-26 -76.5q-41 -127 -88 -250.5t-88 -250.5 q-6 -27 -26 -41q6 53 13 100t1 94q-8 -18 -15.5 -35.5t-15.5 -35.5l-63 -146q-8 -16 -15.5 -34.5t-15.5 -37.5l-12 2q10 66 18 132.5t19 134.5q-20 -18 -23.5 -44t-23.5 -48q-8 33 -3 57q16 104 36 205.5t42 206.5q18 80 -4 161q-18 72 -29.5 144.5t-21.5 144.5 q-2 20 -5 39.5t-7 40.5l-17 80q-4 16 -6 31.5t-2 31.5zM304 1137.5q1 -37.5 5 -80.5t11.5 -86t15.5 -78q-4 78 -11.5 153.5t-19.5 153.5q-2 -25 -1 -62.5zM610 1489q16 35 28.5 64.5t30.5 56.5q23 29 45.5 56.5t38.5 58.5q12 23 35 22q12 2 29.5 -4t34 -16.5t29 -22.5 t12.5 -22q0 -18 -15 -27q-45 -35 -88 -66.5t-88 -66.5q-6 -4 -14 -8t-21 0q4 14 15.5 24t15.5 29q-29 -16 -45 -36.5t-43 -41.5z" />
<glyph unicode="&#xdf;" horiz-adv-x="909" d="M-76 210q0 7 2 15q12 78 31.5 153t40.5 152q4 16 8 25q4 6 1 7t-8 1h-10t-3 6l12 43q2 10 4 18.5t6 18.5q2 10 4 21.5t6 21.5l13 41q4 10 8 20.5t8 20.5l12 37l19 41q6 12 11 24.5t9 24.5q23 84 72 154.5t113 136.5q63 66 141 100.5t180 32.5q68 0 115 -28.5t67 -82.5 q18 -47 21.5 -93t-19.5 -93q45 35 53.5 76t12.5 86q18 -47 15 -93t-38 -89q-43 -53 -96 -90q-29 -23 -57.5 -45.5t-59.5 -47.5q31 -14 60 -28.5t49 -40.5q8 10 0 17t2 18q29 -31 51.5 -62t26.5 -70q6 -72 -25 -131q-63 -131 -184 -208.5t-268 -77.5q-27 0 -53.5 3t-55.5 7 q57 20 113.5 28.5t101.5 41.5q-29 -6 -58.5 -10.5t-58.5 -4.5q-51 0 -100 15q47 16 95 32.5t96 44.5q-41 0 -74 -9t-74 1q51 33 103 53q66 25 120 61t103 79q25 18 43 49q10 20 5 30.5t-32 18.5q-35 10 -71.5 8t-73.5 -6q-16 -2 -34.5 -5t-35.5 -7q-10 -2 -19.5 -2t-13.5 8 q-6 10 0 15t15 9q4 4 11 7.5t11 9.5q-4 4 -6 4q-10 4 -21.5 0t-15.5 8q-4 10 5.5 15.5t17.5 9.5q51 41 102 83t96 89q4 4 11.5 10t5.5 20q-33 -23 -58.5 -45t-60.5 -39q10 12 21.5 23.5t21.5 22.5q6 8 13 14l14 12l51 55q35 29 58.5 68t29.5 84q4 35 -12.5 54.5t-47.5 19.5 q-20 0 -43 -8q-66 -18 -102 -78q16 -4 26.5 7t28.5 3q-4 -2 -5 -4t-5 -4l-20 -19q-72 -72 -121 -141.5t-82 -165.5q-29 -80 -60.5 -158.5t-54.5 -158.5q-4 -14 -6 -27.5t-6 -26.5l-25 -110q-4 -12 -6 -25.5t-6 -27.5q-6 -25 -14 -49.5t-17 -51.5q-4 -10 -9 -20t-19 -21 q-8 29 1 57.5t-1 63.5q-63 -92 -115 -184q2 39 6 77t2 78q-18 -6 -19 -18t-16 -20q-6 8 -6 15z" />
<glyph unicode="&#xe0;" horiz-adv-x="868" d="M-135 109q12 53 31.5 104t42 101.5t44 101.5t35.5 104q-20 6 -37.5 -2t-35.5 6q20 41 29.5 87t27.5 89q10 27 39 31q20 4 40.5 6t43.5 6q-20 12 -42 9.5t-38 9.5q33 12 66 10q29 4 36 23q29 59 60 119.5t57 119.5q10 23 21.5 44.5t25.5 43.5q20 33 39 41t66 4 q4 14 4 27.5v28.5q0 10 -3 19t13 18q14 8 30.5 9t26.5 -5q23 -16 33 -17q14 0 29 21q4 6 14 6t17 -6q10 -16 25.5 -17.5t31.5 -1.5q16 2 29.5 2h27.5q29 0 36 -5t7 -29q0 -100 -2 -198.5t-6 -199.5q-2 -33 4 -40t45 -13q4 -4 1 -6t-7 -3t-7 -3.5t3 -8.5q6 -4 15.5 -7 t15.5 -11q-2 -12 -13.5 -17t-23.5 -8q-25 -4 -33 -17t-10 -34q-2 -55 -5 -110.5t-7 -112.5q-4 -53 -5.5 -107.5t-9.5 -113.5q-23 27 -25.5 52.5t-13.5 47.5q-20 -57 -20 -118.5t-10 -122.5q-16 41 -30.5 82.5t-21.5 89.5q-16 -10 -14 -23.5t-6 -24.5q-16 12 -19.5 27.5 t-7.5 30.5q-18 82 -27.5 164t-19.5 166q-4 29 -13 30.5t-34 -4.5q-35 -8 -70.5 -15t-70.5 -11q-31 -4 -45 -31l-86 -158q-4 -8 -8.5 -17.5t-18.5 -13.5q-4 20 8.5 39t10.5 43q-53 -72 -91.5 -145.5t-85.5 -142.5l43 172q-94 -98 -151 -215zM359 1451.5q-1 10.5 17 26.5 q10 10 14.5 22.5t12.5 23.5q20 27 45 26q16 0 37 -14q10 -8 18.5 -15.5t16.5 -17.5q31 -43 66.5 -85t70.5 -83q6 -6 -4 -12l-94 45q-6 -8 0 -13.5t-2 -15.5q-41 29 -86 48.5t-88 41.5q-23 12 -24 22.5zM371 788q16 -4 33.5 -1.5t35.5 4.5q20 0 17 16q-4 27 -4 53.5t-9 52.5 h-10l-8 -12t-8 -14l-31 -49q-4 -8 -8 -14.5t-8 -12.5q-8 -10 0 -23z" />
<glyph unicode="&#xe1;" horiz-adv-x="868" d="M-135 109q12 53 31.5 104t42 101.5t44 101.5t35.5 104q-20 6 -37.5 -2t-35.5 6q20 41 29.5 87t27.5 89q10 27 39 31q20 4 40.5 6t43.5 6q-20 12 -42 9.5t-38 9.5q33 12 66 10q29 4 36 23q29 59 60 119.5t57 119.5q10 23 21.5 44.5t25.5 43.5q20 33 39 41t66 4 q4 14 4 27.5v28.5q0 10 -3 19t13 18q14 8 30.5 9t26.5 -5q23 -16 33 -17q14 0 29 21q4 6 14 6t17 -6q10 -16 25.5 -17.5t31.5 -1.5q16 2 29.5 2h27.5q29 0 36 -5t7 -29q0 -100 -2 -198.5t-6 -199.5q-2 -33 4 -40t45 -13q4 -4 1 -6t-7 -3t-7 -3.5t3 -8.5q6 -4 15.5 -7 t15.5 -11q-2 -12 -13.5 -17t-23.5 -8q-25 -4 -33 -17t-10 -34q-2 -55 -5 -110.5t-7 -112.5q-4 -53 -5.5 -107.5t-9.5 -113.5q-23 27 -25.5 52.5t-13.5 47.5q-20 -57 -20 -118.5t-10 -122.5q-16 41 -30.5 82.5t-21.5 89.5q-16 -10 -14 -23.5t-6 -24.5q-16 12 -19.5 27.5 t-7.5 30.5q-18 82 -27.5 164t-19.5 166q-4 29 -13 30.5t-34 -4.5q-35 -8 -70.5 -15t-70.5 -11q-31 -4 -45 -31l-86 -158q-4 -8 -8.5 -17.5t-18.5 -13.5q-4 20 8.5 39t10.5 43q-53 -72 -91.5 -145.5t-85.5 -142.5l43 172q-94 -98 -151 -215zM371 788q16 -4 33.5 -1.5 t35.5 4.5q20 0 17 16q-4 27 -4 53.5t-9 52.5h-10l-8 -12t-8 -14l-31 -49q-4 -8 -8 -14.5t-8 -12.5q-8 -10 0 -23zM535 1317q16 35 28.5 64.5t30.5 56.5q23 29 45.5 56.5t38.5 58.5q12 23 35 22q12 2 29.5 -4t34 -16.5t29 -22.5t12.5 -22q0 -18 -15 -27q-45 -35 -88 -66.5 t-88 -66.5q-6 -4 -14 -8t-21 0q4 14 15.5 24t15.5 29q-29 -16 -45 -36.5t-43 -41.5z" />
<glyph unicode="&#xe2;" horiz-adv-x="868" d="M-135 109q12 53 31.5 104t42 101.5t44 101.5t35.5 104q-20 6 -37.5 -2t-35.5 6q20 41 29.5 87t27.5 89q10 27 39 31q20 4 40.5 6t43.5 6q-20 12 -42 9.5t-38 9.5q33 12 66 10q29 4 36 23q29 59 60 119.5t57 119.5q10 23 21.5 44.5t25.5 43.5q20 33 39 41t66 4 q4 14 4 27.5v28.5q0 10 -3 19t13 18q14 8 30.5 9t26.5 -5q23 -16 33 -17q14 0 29 21q4 6 14 6t17 -6q10 -16 25.5 -17.5t31.5 -1.5q16 2 29.5 2h27.5q29 0 36 -5t7 -29q0 -100 -2 -198.5t-6 -199.5q-2 -33 4 -40t45 -13q4 -4 1 -6t-7 -3t-7 -3.5t3 -8.5q6 -4 15.5 -7 t15.5 -11q-2 -12 -13.5 -17t-23.5 -8q-25 -4 -33 -17t-10 -34q-2 -55 -5 -110.5t-7 -112.5q-4 -53 -5.5 -107.5t-9.5 -113.5q-23 27 -25.5 52.5t-13.5 47.5q-20 -57 -20 -118.5t-10 -122.5q-16 41 -30.5 82.5t-21.5 89.5q-16 -10 -14 -23.5t-6 -24.5q-16 12 -19.5 27.5 t-7.5 30.5q-18 82 -27.5 164t-19.5 166q-4 29 -13 30.5t-34 -4.5q-35 -8 -70.5 -15t-70.5 -11q-31 -4 -45 -31l-86 -158q-4 -8 -8.5 -17.5t-18.5 -13.5q-4 20 8.5 39t10.5 43q-53 -72 -91.5 -145.5t-85.5 -142.5l43 172q-94 -98 -151 -215zM371 788q16 -4 33.5 -1.5 t35.5 4.5q20 0 17 16q-4 27 -4 53.5t-9 52.5h-10l-8 -12t-8 -14l-31 -49q-4 -8 -8 -14.5t-8 -12.5q-8 -10 0 -23zM413.5 1357.5q-7.5 16.5 4.5 32.5q35 47 73 93t97 75q18 8 39 12q35 6 45 -18q16 -45 35 -88t27 -90q2 -12 7 -24.5t1 -29.5q-16 6 -20.5 17.5t-14.5 19.5 q-4 0 -5 -5t-3 -9t-6.5 -5t-12.5 7q-10 10 -18 22.5t-17 26.5q-6 12 -11 25.5t-19 25.5q-29 -33 -53.5 -65.5t-61.5 -67.5q4 33 19.5 55.5t23.5 51.5q-37 -25 -55 -60q-16 -35 -49 -24q-18 6 -25.5 22.5z" />
<glyph unicode="&#xe3;" horiz-adv-x="868" d="M-135 109q12 53 31.5 104t42 101.5t44 101.5t35.5 104q-20 6 -37.5 -2t-35.5 6q20 41 29.5 87t27.5 89q10 27 39 31q20 4 40.5 6t43.5 6q-20 12 -42 9.5t-38 9.5q33 12 66 10q29 4 36 23q29 59 60 119.5t57 119.5q10 23 21.5 44.5t25.5 43.5q20 33 39 41t66 4 q4 14 4 27.5v28.5q0 10 -3 19t13 18q14 8 30.5 9t26.5 -5q23 -16 33 -17q14 0 29 21q4 6 14 6t17 -6q10 -16 25.5 -17.5t31.5 -1.5q16 2 29.5 2h27.5q29 0 36 -5t7 -29q0 -100 -2 -198.5t-6 -199.5q-2 -33 4 -40t45 -13q4 -4 1 -6t-7 -3t-7 -3.5t3 -8.5q6 -4 15.5 -7 t15.5 -11q-2 -12 -13.5 -17t-23.5 -8q-25 -4 -33 -17t-10 -34q-2 -55 -5 -110.5t-7 -112.5q-4 -53 -5.5 -107.5t-9.5 -113.5q-23 27 -25.5 52.5t-13.5 47.5q-20 -57 -20 -118.5t-10 -122.5q-16 41 -30.5 82.5t-21.5 89.5q-16 -10 -14 -23.5t-6 -24.5q-16 12 -19.5 27.5 t-7.5 30.5q-18 82 -27.5 164t-19.5 166q-4 29 -13 30.5t-34 -4.5q-35 -8 -70.5 -15t-70.5 -11q-31 -4 -45 -31l-86 -158q-4 -8 -8.5 -17.5t-18.5 -13.5q-4 20 8.5 39t10.5 43q-53 -72 -91.5 -145.5t-85.5 -142.5l43 172q-94 -98 -151 -215zM369 1330q2 5 6 11 q16 29 34.5 56.5t43.5 50.5q47 43 106 43q31 0 57.5 -13.5t43.5 -36.5q10 -16 24.5 -17t32.5 5q20 6 35.5 19.5t32.5 25.5q6 -16 -1 -26.5t-10 -24.5q29 10 39.5 29t28.5 33q6 -12 0 -19.5t-10 -17.5q-10 -16 -21.5 -34t-21.5 -34q-16 -29 -47 -45t-66 -16q-51 0 -88 34 q-27 27 -45 27q-10 0 -20.5 -5t-26.5 -15q-4 -2 -6 -4.5t-6 -4.5l-23 -16q-4 -2 -6 -4t-6 -4q-10 6 -4 11t2 11q-12 2 -19.5 -5t-17.5 -11t-16.5 -10t-18.5 -4q-8 6 -6 11zM371 788q16 -4 33.5 -1.5t35.5 4.5q20 0 17 16q-4 27 -4 53.5t-9 52.5h-10l-8 -12t-8 -14l-31 -49 q-4 -8 -8 -14.5t-8 -12.5q-8 -10 0 -23zM652 1347q33 -16 53 2q-12 -2 -24.5 1t-28.5 -3z" />
<glyph unicode="&#xe4;" horiz-adv-x="868" d="M-135 109q12 53 31.5 104t42 101.5t44 101.5t35.5 104q-20 6 -37.5 -2t-35.5 6q20 41 29.5 87t27.5 89q10 27 39 31q20 4 40.5 6t43.5 6q-20 12 -42 9.5t-38 9.5q33 12 66 10q29 4 36 23q29 59 60 119.5t57 119.5q10 23 21.5 44.5t25.5 43.5q20 33 39 41t66 4 q4 14 4 27.5v28.5q0 10 -3 19t13 18q14 8 30.5 9t26.5 -5q23 -16 33 -17q14 0 29 21q4 6 14 6t17 -6q10 -16 25.5 -17.5t31.5 -1.5q16 2 29.5 2h27.5q29 0 36 -5t7 -29q0 -100 -2 -198.5t-6 -199.5q-2 -33 4 -40t45 -13q4 -4 1 -6t-7 -3t-7 -3.5t3 -8.5q6 -4 15.5 -7 t15.5 -11q-2 -12 -13.5 -17t-23.5 -8q-25 -4 -33 -17t-10 -34q-2 -55 -5 -110.5t-7 -112.5q-4 -53 -5.5 -107.5t-9.5 -113.5q-23 27 -25.5 52.5t-13.5 47.5q-20 -57 -20 -118.5t-10 -122.5q-16 41 -30.5 82.5t-21.5 89.5q-16 -10 -14 -23.5t-6 -24.5q-16 12 -19.5 27.5 t-7.5 30.5q-18 82 -27.5 164t-19.5 166q-4 29 -13 30.5t-34 -4.5q-35 -8 -70.5 -15t-70.5 -11q-31 -4 -45 -31l-86 -158q-4 -8 -8.5 -17.5t-18.5 -13.5q-4 20 8.5 39t10.5 43q-53 -72 -91.5 -145.5t-85.5 -142.5l43 172q-94 -98 -151 -215zM371 788q16 -4 33.5 -1.5 t35.5 4.5q20 0 17 16q-4 27 -4 53.5t-9 52.5h-10l-8 -12t-8 -14l-31 -49q-4 -8 -8 -14.5t-8 -12.5q-8 -10 0 -23zM428 1369q0 14 1 27t3 26q2 14 3 26.5t3 26.5q0 27 35 29q20 2 39.5 4t38.5 -12q6 -9 14 -5q16 10 20.5 3t2.5 -17q0 -10 -6 -22q-16 -35 -35 -68t-41 -64 q-2 -4 -4 -5t-4 -3q-10 8 -7.5 17.5t-5.5 19.5q-4 -2 -7 -4t-7 -2q-43 -8 -43 23zM666 1369q0 14 1 27t3 26q2 14 3 26.5t3 26.5q0 27 35 29q20 2 39.5 4t37.5 -12q7 -9 15 -5q16 10 20 3t2 -17q0 -10 -6 -22q-16 -35 -34.5 -68t-41.5 -64q-2 -4 -4 -5t-4 -3q-10 8 -7 17.5 t-5 19.5q-4 -2 -7 -4t-7 -2q-43 -8 -43 23z" />
<glyph unicode="&#xe5;" horiz-adv-x="868" d="M-135 109q12 53 31.5 104t42 101.5t44 101.5t35.5 104q-20 6 -37.5 -2t-35.5 6q20 41 29.5 87t27.5 89q10 27 39 31q20 4 40.5 6t43.5 6q-20 12 -42 9.5t-38 9.5q33 12 66 10q29 4 36 23q29 59 60 119.5t57 119.5q10 23 21.5 44.5t25.5 43.5q20 33 39 41t66 4 q4 14 4 27.5v28.5q0 10 -3 19t13 18q14 8 30.5 9t26.5 -5q23 -16 33 -17q14 0 29 21q4 6 14 6t17 -6q10 -16 25.5 -17.5t31.5 -1.5q16 2 29.5 2h27.5q29 0 36 -5t7 -29q0 -100 -2 -198.5t-6 -199.5q-2 -33 4 -40t45 -13q4 -4 1 -6t-7 -3t-7 -3.5t3 -8.5q6 -4 15.5 -7 t15.5 -11q-2 -12 -13.5 -17t-23.5 -8q-25 -4 -33 -17t-10 -34q-2 -55 -5 -110.5t-7 -112.5q-4 -53 -5.5 -107.5t-9.5 -113.5q-23 27 -25.5 52.5t-13.5 47.5q-20 -57 -20 -118.5t-10 -122.5q-16 41 -30.5 82.5t-21.5 89.5q-16 -10 -14 -23.5t-6 -24.5q-16 12 -19.5 27.5 t-7.5 30.5q-18 82 -27.5 164t-19.5 166q-4 29 -13 30.5t-34 -4.5q-35 -8 -70.5 -15t-70.5 -11q-31 -4 -45 -31l-86 -158q-4 -8 -8.5 -17.5t-18.5 -13.5q-4 20 8.5 39t10.5 43q-53 -72 -91.5 -145.5t-85.5 -142.5l43 172q-94 -98 -151 -215zM371 788q16 -4 33.5 -1.5 t35.5 4.5q20 0 17 16q-4 27 -4 53.5t-9 52.5h-10l-8 -12t-8 -14l-31 -49q-4 -8 -8 -14.5t-8 -12.5q-8 -10 0 -23zM481 1426.5q2 39.5 22.5 73.5t57.5 57.5t86 27.5q31 4 57.5 -5t45 -26.5t26.5 -42t2 -51.5q-8 -35 -28.5 -65.5t-69.5 -42.5q-2 -2 -4 -2q-49 -25 -80 -25 q-23 0 -41.5 12.5t-40.5 38.5q-8 -4 -4 -12t-6 -14q-25 37 -23 76.5zM594 1389q24 -25 47 -7v7h-47zM594 1440q-2 -18 9 -26.5t32 -2.5q16 4 28 16q27 37 33 76q8 23 -14 29q-14 6 -23.5 2t-17.5 -12q-20 -16 -29.5 -38t-17.5 -44z" />
<glyph unicode="&#xe6;" horiz-adv-x="1353" d="M-135 125q12 53 31.5 104.5t42 101.5t44 101t35.5 105q-18 6 -36.5 -2.5t-36.5 6.5q23 41 32 86t27 90q10 25 39 28q18 4 38.5 7.5t43.5 7.5q-20 12 -41 8t-39 10q33 12 66 10q29 0 39 23q29 59 59.5 118.5t56.5 121.5q10 23 21.5 44t23.5 42q10 16 19.5 26.5t20.5 15.5 t26.5 6t40.5 -1q4 14 3 27.5t-1 25.5q0 10 -3 20.5t13 18.5q14 8 35 8q16 0 24 -6q23 -14 33 -14q14 0 27 20q6 6 16 6q8 0 15 -8q10 -16 26.5 -16h32.5q8 0 15.5 1t17.5 1q6 8 16 12h10q96 2 189.5 11t189.5 9h20.5t20.5 -2h80q10 -2 19.5 -2h19.5q53 -4 106.5 -5t106.5 1 q25 4 41 -12l-225 -72q43 -10 81.5 -9t79.5 -1q-16 -10 -59 -26.5t-102.5 -36t-129 -39t-141 -39t-138.5 -35t-120 -25.5v-14q-2 -10 -2 -27q18 -8 27 7q14 20 29 20q10 0 24 -10q10 -10 23.5 -5t27.5 -3q-4 -10 -8 -20.5t-8 -20.5l-31 -84q-4 -10 -8 -20.5t-8 -20.5 q14 0 16 6l4 12q4 8 8.5 16.5t8.5 16.5l30 63q4 10 8.5 17.5t8.5 15.5q2 4 5 10.5t7 12.5q6 16 25 10q6 -4 5 -9t-3 -9q-12 -29 -25.5 -59t-28.5 -58q-4 -10 -9 -20.5t-9 -24.5q78 -4 150.5 8t152.5 22q-29 -23 -59.5 -26.5t-59.5 -20.5q47 -6 90 1.5t95 0.5 q-35 -29 -68 -54t-76 -38q-66 -16 -130 -34.5t-134 -28.5q-45 -6 -59 -45q-10 -27 -22.5 -52.5t-24.5 -54.5v-16t-2 -17v-23t-2 -24q127 23 250.5 40.5t254.5 21.5q-41 -29 -82 -44.5t-81 -31.5q49 -4 98 6t104 12q-29 -23 -56.5 -34t-55.5 -27q10 -10 20 -3t21 -1 q-25 -16 -82.5 -38t-132 -46.5t-161.5 -48t-171 -41.5q0 -39 -6 -80q-8 16 -15.5 34.5t-13.5 37.5q-98 -23 -177 -34t-112 -7q12 12 27.5 17t30.5 11q23 6 28 23q4 6 4 11t-12 11q-23 12 -25 20.5t15 22.5q20 16 14 39q-10 39 37 49q37 8 49 28t17 48l6 31q-2 8 -2 16.5 t-2 16.5l-9 63q-2 10 -2 17.5t-4 15.5q-45 -2 -51 25q-2 27 18 47q-4 0 -16 -4q-35 -8 -70.5 -15.5t-70.5 -11.5q-33 -4 -43 -31q-23 -41 -44.5 -80t-43.5 -77q-4 -8 -8.5 -17.5t-16.5 -13.5q-4 20 8.5 38.5t8.5 43.5q-53 -72 -90 -145.5t-85 -143.5l43 170 q-94 -92 -153 -213zM371 805q16 -4 34.5 -2t34.5 4q18 0 19 16q-4 27 -4 53.5t-9 53.5h-12q-16 -27 -30.5 -52.5t-30.5 -50.5q-8 -12 -2 -22zM737 1016q23 6 44.5 13t41.5 18q-23 0 -43 -2.5t-43 -6.5v-22zM737 1241q0 -4 2 -6l4 2h2q-2 0 -2 2z" />
<glyph unicode="&#xe7;" horiz-adv-x="765" d="M-57 438.5q8 53.5 18 106.5q14 70 49 149.5t81 157.5t98.5 147.5t101.5 118.5q10 10 20.5 21.5t26.5 19.5q6 -10 -4 -18t-6 -21q49 39 96 77t111 63q0 -16 -12.5 -23.5t-16.5 -24.5q27 -6 48 -19t34 -38q16 16 22 33.5t17 34.5q10 16 17 24t20 8q8 0 32 -10q16 -10 31 0 q27 12 55.5 13.5t57.5 3.5q33 4 22 -25q-10 -27 -20.5 -52.5t-24.5 -49.5q-41 -76 -78 -153t-73 -155q-8 -18 -19.5 -36.5t-23.5 -34.5q-4 25 2 42t4 38q-12 -4 -16.5 -11.5t-8.5 -15.5l-94 -186q-10 -23 -23.5 -46.5t-35.5 -50.5q10 55 25.5 104.5t17.5 98.5 q-12 0 -15.5 -8t-19.5 -12q6 63 18 124.5t15 122.5q-18 4 -29.5 -2t-22.5 -14q-111 -72 -175 -166t-95 -207q-6 -37 2 -67q18 -70 104 -86q57 -10 110.5 -3t105.5 29q8 4 14 6.5t14 6.5l58 26q8 4 14 6t14 7q-29 -45 -69.5 -81t-81.5 -79q49 16 86 37.5t77 44.5 q4 -23 0 -38.5t-12 -31.5q-10 -14 -18 -27.5t-17 -29.5q12 -4 21.5 3t21.5 5q-35 -53 -147.5 -87t-278.5 -42q39 -8 75 -10t73 -4q-51 -14 -107 -15q-104 0 -182 52.5t-100 140.5q-12 55 -4 108.5zM109 -74q4 12 17.5 9.5t23.5 -7.5q31 -6 59 0q-18 4 -33.5 8.5t-29.5 8.5 q-33 10 -27 33q4 12 15.5 14t23.5 2q41 -4 76 8q47 12 49 49q-20 6 -39.5 6.5t-38.5 -2.5q-37 0 -30 27q12 66 55 125q16 23 49 10q16 -4 20.5 -16t-4.5 -27q-8 -16 -16 -29.5t-18 -27.5q4 -2 8 -6q111 -14 84 -107q-8 -25 -27.5 -47t-43 -37.5t-51.5 -25t-56 -6.5 q-10 2 -18.5 3t-18.5 5t-21.5 11t-7.5 19z" />
<glyph unicode="&#xe8;" d="M-150 96q12 12 28 18.5t30 10.5q23 6 29 22q4 8 4 13.5t-13 11.5q-23 10 -24.5 18.5t14.5 24.5q20 16 14 37q-10 39 37 49q37 8 49.5 27.5t16.5 48.5q4 31 11 60.5t15 58.5q2 10 3.5 20t3.5 21q-14 4 -24.5 2t-20.5 -2q-45 -2 -52 24q-4 18 8.5 35.5t30.5 19.5 q4 0 18.5 3.5t29 8.5t25.5 11t11 12q-12 4 -24.5 2t-24.5 0q-35 6 -22 33q8 16 23 24.5t34 8.5q29 2 41 15.5t18 33.5q10 35 21.5 68.5t21.5 68.5q8 27 38 38t59 -1q18 -10 26 4q14 20 29 21q10 0 24 -11q10 -10 23.5 -5t28.5 -3l-64 -166q14 0 16.5 6.5t4.5 12.5l8 16t8 17 l31 63q4 10 8 17.5t8 15.5q2 6 5 12t7 10q6 16 25 11q6 -2 6 -8.5t-4 -10.5q-12 -29 -25.5 -58.5t-27.5 -58.5q-4 -10 -9.5 -20t-9.5 -25q78 -4 151 9.5t152 23.5q-29 -23 -59.5 -28t-58.5 -19q47 -8 90 0t94 0q-35 -29 -67.5 -54.5t-75.5 -35.5q-66 -18 -130.5 -36.5 t-134.5 -29.5q-45 -6 -59 -45q-18 -47 -40.5 -93t-45.5 -99q135 27 268 45t275 22q-41 -29 -83 -44t-83 -31q49 -4 98 7t105 11q-29 -20 -56.5 -32.5t-56.5 -28.5q10 -10 20.5 -3t20.5 -2q-27 -18 -93.5 -42.5t-153.5 -51t-184 -51t-184.5 -44t-157 -29t-98.5 -5.5zM80 342 q16 16 10 39q-20 -14 -10 -39zM156 1053q8 29 15 59.5t17 61.5q8 29 15.5 33.5t42.5 6.5h21.5t21.5 7q-14 8 -26.5 6t-24.5 0q-10 2 -18.5 3t-8.5 11q0 16 22 23l7 2h2q96 0 189 10t190 8q41 0 79.5 -1t79.5 -3q53 -2 106.5 -4t106.5 0q23 6 41 -12l-225 -72q43 -10 82 -9 t80 -1q-20 -12 -78.5 -34t-137.5 -45.5t-168 -48t-171 -44t-146.5 -31.5t-95.5 -12q51 16 99.5 29.5t95.5 33.5q-41 -2 -79 -7t-79 -15q-43 -10 -54.5 -1t-0.5 46zM386 1468.5q-1 10.5 17 26.5q10 10 14.5 22.5t12.5 23.5q20 27 45 26q16 0 37 -14q10 -8 18.5 -15.5 t16.5 -17.5q31 -43 66.5 -85t70.5 -83q6 -6 -4 -12l-94 45q-6 -8 0 -13.5t-2 -15.5q-41 29 -86 48.5t-88 41.5q-23 12 -24 22.5z" />
<glyph unicode="&#xe9;" d="M-150 96q12 12 28 18.5t30 10.5q23 6 29 22q4 8 4 13.5t-13 11.5q-23 10 -24.5 18.5t14.5 24.5q20 16 14 37q-10 39 37 49q37 8 49.5 27.5t16.5 48.5q4 31 11 60.5t15 58.5q2 10 3.5 20t3.5 21q-14 4 -24.5 2t-20.5 -2q-45 -2 -52 24q-4 18 8.5 35.5t30.5 19.5 q4 0 18.5 3.5t29 8.5t25.5 11t11 12q-12 4 -24.5 2t-24.5 0q-35 6 -22 33q8 16 23 24.5t34 8.5q29 2 41 15.5t18 33.5q10 35 21.5 68.5t21.5 68.5q8 27 38 38t59 -1q18 -10 26 4q14 20 29 21q10 0 24 -11q10 -10 23.5 -5t28.5 -3l-64 -166q14 0 16.5 6.5t4.5 12.5l8 16t8 17 l31 63q4 10 8 17.5t8 15.5q2 6 5 12t7 10q6 16 25 11q6 -2 6 -8.5t-4 -10.5q-12 -29 -25.5 -58.5t-27.5 -58.5q-4 -10 -9.5 -20t-9.5 -25q78 -4 151 9.5t152 23.5q-29 -23 -59.5 -28t-58.5 -19q47 -8 90 0t94 0q-35 -29 -67.5 -54.5t-75.5 -35.5q-66 -18 -130.5 -36.5 t-134.5 -29.5q-45 -6 -59 -45q-18 -47 -40.5 -93t-45.5 -99q135 27 268 45t275 22q-41 -29 -83 -44t-83 -31q49 -4 98 7t105 11q-29 -20 -56.5 -32.5t-56.5 -28.5q10 -10 20.5 -3t20.5 -2q-27 -18 -93.5 -42.5t-153.5 -51t-184 -51t-184.5 -44t-157 -29t-98.5 -5.5zM80 342 q16 16 10 39q-20 -14 -10 -39zM156 1053q8 29 15 59.5t17 61.5q8 29 15.5 33.5t42.5 6.5h21.5t21.5 7q-14 8 -26.5 6t-24.5 0q-10 2 -18.5 3t-8.5 11q0 16 22 23l7 2h2q96 0 189 10t190 8q41 0 79.5 -1t79.5 -3q53 -2 106.5 -4t106.5 0q23 6 41 -12l-225 -72q43 -10 82 -9 t80 -1q-20 -12 -78.5 -34t-137.5 -45.5t-168 -48t-171 -44t-146.5 -31.5t-95.5 -12q51 16 99.5 29.5t95.5 33.5q-41 -2 -79 -7t-79 -15q-43 -10 -54.5 -1t-0.5 46zM561 1333q16 35 28.5 64.5t30.5 56.5q23 29 45.5 56.5t38.5 58.5q12 23 35 22q12 2 29.5 -4t34 -16.5 t29 -22.5t12.5 -22q0 -18 -15 -27q-45 -35 -88 -66.5t-88 -66.5q-6 -4 -14 -8t-21 0q4 14 15.5 24t15.5 29q-29 -16 -45 -36.5t-43 -41.5z" />
<glyph unicode="&#xea;" d="M-150 96q12 12 28 18.5t30 10.5q23 6 29 22q4 8 4 13.5t-13 11.5q-23 10 -24.5 18.5t14.5 24.5q20 16 14 37q-10 39 37 49q37 8 49.5 27.5t16.5 48.5q4 31 11 60.5t15 58.5q2 10 3.5 20t3.5 21q-14 4 -24.5 2t-20.5 -2q-45 -2 -52 24q-4 18 8.5 35.5t30.5 19.5 q4 0 18.5 3.5t29 8.5t25.5 11t11 12q-12 4 -24.5 2t-24.5 0q-35 6 -22 33q8 16 23 24.5t34 8.5q29 2 41 15.5t18 33.5q10 35 21.5 68.5t21.5 68.5q8 27 38 38t59 -1q18 -10 26 4q14 20 29 21q10 0 24 -11q10 -10 23.5 -5t28.5 -3l-64 -166q14 0 16.5 6.5t4.5 12.5l8 16t8 17 l31 63q4 10 8 17.5t8 15.5q2 6 5 12t7 10q6 16 25 11q6 -2 6 -8.5t-4 -10.5q-12 -29 -25.5 -58.5t-27.5 -58.5q-4 -10 -9.5 -20t-9.5 -25q78 -4 151 9.5t152 23.5q-29 -23 -59.5 -28t-58.5 -19q47 -8 90 0t94 0q-35 -29 -67.5 -54.5t-75.5 -35.5q-66 -18 -130.5 -36.5 t-134.5 -29.5q-45 -6 -59 -45q-18 -47 -40.5 -93t-45.5 -99q135 27 268 45t275 22q-41 -29 -83 -44t-83 -31q49 -4 98 7t105 11q-29 -20 -56.5 -32.5t-56.5 -28.5q10 -10 20.5 -3t20.5 -2q-27 -18 -93.5 -42.5t-153.5 -51t-184 -51t-184.5 -44t-157 -29t-98.5 -5.5zM80 342 q16 16 10 39q-20 -14 -10 -39zM156 1053q8 29 15 59.5t17 61.5q8 29 15.5 33.5t42.5 6.5h21.5t21.5 7q-14 8 -26.5 6t-24.5 0q-10 2 -18.5 3t-8.5 11q0 16 22 23l7 2h2q96 0 189 10t190 8q41 0 79.5 -1t79.5 -3q53 -2 106.5 -4t106.5 0q23 6 41 -12l-225 -72q43 -10 82 -9 t80 -1q-20 -12 -78.5 -34t-137.5 -45.5t-168 -48t-171 -44t-146.5 -31.5t-95.5 -12q51 16 99.5 29.5t95.5 33.5q-41 -2 -79 -7t-79 -15q-43 -10 -54.5 -1t-0.5 46zM439.5 1374.5q-7.5 16.5 4.5 32.5q35 47 73 93t97 75q18 8 39 12q35 6 45 -18q16 -45 35 -88t27 -90 q2 -12 7 -24.5t1 -29.5q-16 6 -20.5 17.5t-14.5 19.5q-4 0 -5 -5t-3 -9t-6.5 -5t-12.5 7q-10 10 -18 22.5t-17 26.5q-6 12 -11 25.5t-19 25.5q-29 -33 -53.5 -65.5t-61.5 -67.5q4 33 19.5 55.5t23.5 51.5q-37 -25 -55 -60q-16 -35 -49 -24q-18 6 -25.5 22.5z" />
<glyph unicode="&#xeb;" d="M-150 96q12 12 28 18.5t30 10.5q23 6 29 22q4 8 4 13.5t-13 11.5q-23 10 -24.5 18.5t14.5 24.5q20 16 14 37q-10 39 37 49q37 8 49.5 27.5t16.5 48.5q4 31 11 60.5t15 58.5q2 10 3.5 20t3.5 21q-14 4 -24.5 2t-20.5 -2q-45 -2 -52 24q-4 18 8.5 35.5t30.5 19.5 q4 0 18.5 3.5t29 8.5t25.5 11t11 12q-12 4 -24.5 2t-24.5 0q-35 6 -22 33q8 16 23 24.5t34 8.5q29 2 41 15.5t18 33.5q10 35 21.5 68.5t21.5 68.5q8 27 38 38t59 -1q18 -10 26 4q14 20 29 21q10 0 24 -11q10 -10 23.5 -5t28.5 -3l-64 -166q14 0 16.5 6.5t4.5 12.5l8 16t8 17 l31 63q4 10 8 17.5t8 15.5q2 6 5 12t7 10q6 16 25 11q6 -2 6 -8.5t-4 -10.5q-12 -29 -25.5 -58.5t-27.5 -58.5q-4 -10 -9.5 -20t-9.5 -25q78 -4 151 9.5t152 23.5q-29 -23 -59.5 -28t-58.5 -19q47 -8 90 0t94 0q-35 -29 -67.5 -54.5t-75.5 -35.5q-66 -18 -130.5 -36.5 t-134.5 -29.5q-45 -6 -59 -45q-18 -47 -40.5 -93t-45.5 -99q135 27 268 45t275 22q-41 -29 -83 -44t-83 -31q49 -4 98 7t105 11q-29 -20 -56.5 -32.5t-56.5 -28.5q10 -10 20.5 -3t20.5 -2q-27 -18 -93.5 -42.5t-153.5 -51t-184 -51t-184.5 -44t-157 -29t-98.5 -5.5zM80 342 q16 16 10 39q-20 -14 -10 -39zM156 1053q8 29 15 59.5t17 61.5q8 29 15.5 33.5t42.5 6.5h21.5t21.5 7q-14 8 -26.5 6t-24.5 0q-10 2 -18.5 3t-8.5 11q0 16 22 23l7 2h2q96 0 189 10t190 8q41 0 79.5 -1t79.5 -3q53 -2 106.5 -4t106.5 0q23 6 41 -12l-225 -72q43 -10 82 -9 t80 -1q-20 -12 -78.5 -34t-137.5 -45.5t-168 -48t-171 -44t-146.5 -31.5t-95.5 -12q51 16 99.5 29.5t95.5 33.5q-41 -2 -79 -7t-79 -15q-43 -10 -54.5 -1t-0.5 46zM455 1385q0 14 1 27t3 26q2 14 3 26.5t3 26.5q0 27 35 29q20 2 39.5 4t38.5 -12q6 -9 14 -5q16 10 20.5 3 t2.5 -17q0 -10 -6 -22q-16 -35 -35 -68t-41 -64q-2 -4 -4 -5t-4 -3q-10 8 -7.5 17.5t-5.5 19.5q-4 -2 -7 -4t-7 -2q-43 -8 -43 23zM693 1385q0 14 1 27t3 26q2 14 3 26.5t3 26.5q0 27 35 29q20 2 39.5 4t37.5 -12q7 -9 15 -5q16 10 20 3t2 -17q0 -10 -6 -22 q-16 -35 -34.5 -68t-41.5 -64q-2 -4 -4 -5t-4 -3q-10 8 -7 17.5t-5 19.5q-4 -2 -7 -4t-7 -2q-43 -8 -43 23z" />
<glyph unicode="&#xec;" horiz-adv-x="364" d="M-68 195q47 274 123 538t156 533q4 10 8 19t21 13q8 -33 55 -26q16 4 22.5 -5.5t4.5 -21.5q-2 -14 -3.5 -27.5t0.5 -27.5q27 31 37 72q4 18 16.5 24t30.5 6q8 2 23 2q27 -4 51.5 -1t34.5 32q10 -6 9 -13t-3 -12q-6 -39 -19.5 -74.5t-29.5 -70.5q-59 -137 -114.5 -273.5 t-108.5 -273.5q-37 -98 -79 -193.5t-83 -193.5l-12 -8l26 94q-41 -53 -66.5 -111.5t-60.5 -113.5q4 47 9.5 93t11.5 97q-23 -18 -30 -40.5t-30 -36.5zM151 1494.5q-1 10.5 17 26.5q10 10 14.5 22.5t12.5 23.5q20 27 45 26q16 0 37 -14q10 -8 18.5 -15.5t16.5 -17.5 q31 -43 66.5 -85t70.5 -83q6 -6 -4 -12l-94 45q-6 -8 0 -13.5t-2 -15.5q-41 29 -86 48.5t-88 41.5q-23 12 -24 22.5z" />
<glyph unicode="&#xed;" horiz-adv-x="364" d="M-68 195q47 274 123 538t156 533q4 10 8 19t21 13q8 -33 55 -26q16 4 22.5 -5.5t4.5 -21.5q-2 -14 -3.5 -27.5t0.5 -27.5q27 31 37 72q4 18 16.5 24t30.5 6q8 2 23 2q27 -4 51.5 -1t34.5 32q10 -6 9 -13t-3 -12q-6 -39 -19.5 -74.5t-29.5 -70.5q-59 -137 -114.5 -273.5 t-108.5 -273.5q-37 -98 -79 -193.5t-83 -193.5l-12 -8l26 94q-41 -53 -66.5 -111.5t-60.5 -113.5q4 47 9.5 93t11.5 97q-23 -18 -30 -40.5t-30 -36.5zM326 1360q16 35 28.5 64.5t30.5 56.5q23 29 45.5 56.5t38.5 58.5q12 23 35 22q12 2 29.5 -4t34 -16.5t29 -22.5t12.5 -22 q0 -18 -15 -27q-45 -35 -88 -66.5t-88 -66.5q-6 -4 -14 -8t-21 0q4 14 15.5 24t15.5 29q-29 -16 -45 -36.5t-43 -41.5z" />
<glyph unicode="&#xee;" horiz-adv-x="364" d="M-68 195q47 274 123 538t156 533q4 10 8 19t21 13q8 -33 55 -26q16 4 22.5 -5.5t4.5 -21.5q-2 -14 -3.5 -27.5t0.5 -27.5q27 31 37 72q4 18 16.5 24t30.5 6q8 2 23 2q27 -4 51.5 -1t34.5 32q10 -6 9 -13t-3 -12q-6 -39 -19.5 -74.5t-29.5 -70.5q-59 -137 -114.5 -273.5 t-108.5 -273.5q-37 -98 -79 -193.5t-83 -193.5l-12 -8l26 94q-41 -53 -66.5 -111.5t-60.5 -113.5q4 47 9.5 93t11.5 97q-23 -18 -30 -40.5t-30 -36.5zM204.5 1401.5q-7.5 16.5 4.5 32.5q35 47 73 93t97 75q18 8 39 12q35 6 45 -18q16 -45 35 -88t27 -90q2 -12 7 -24.5 t1 -29.5q-16 6 -20.5 17.5t-14.5 19.5q-4 0 -5 -5t-3 -9t-6.5 -5t-12.5 7q-10 10 -18 22.5t-17 26.5q-6 12 -11 25.5t-19 25.5q-29 -33 -53.5 -65.5t-61.5 -67.5q4 33 19.5 55.5t23.5 51.5q-37 -25 -55 -60q-16 -35 -49 -24q-18 6 -25.5 22.5z" />
<glyph unicode="&#xef;" horiz-adv-x="364" d="M-68 195q47 274 123 538t156 533q4 10 8 19t21 13q8 -33 55 -26q16 4 22.5 -5.5t4.5 -21.5q-2 -14 -3.5 -27.5t0.5 -27.5q27 31 37 72q4 18 16.5 24t30.5 6q8 2 23 2q27 -4 51.5 -1t34.5 32q10 -6 9 -13t-3 -12q-6 -39 -19.5 -74.5t-29.5 -70.5q-59 -137 -114.5 -273.5 t-108.5 -273.5q-37 -98 -79 -193.5t-83 -193.5l-12 -8l26 94q-41 -53 -66.5 -111.5t-60.5 -113.5q4 47 9.5 93t11.5 97q-23 -18 -30 -40.5t-30 -36.5zM219 1412q0 14 1 27t3 26q2 14 3 26.5t3 26.5q0 27 35 29q20 2 39.5 4t38.5 -12q6 -9 14 -5q16 10 20.5 3t2.5 -17 q0 -10 -6 -22q-16 -35 -35 -68t-41 -64q-2 -4 -4 -5t-4 -3q-10 8 -7.5 17.5t-5.5 19.5q-4 -2 -7 -4t-7 -2q-43 -8 -43 23zM457 1412q0 14 1 27t3 26q2 14 3 26.5t3 26.5q0 27 35 29q20 2 39.5 4t37.5 -12q7 -9 15 -5q16 10 20 3t2 -17q0 -10 -6 -22q-16 -35 -34.5 -68 t-41.5 -64q-2 -4 -4 -5t-4 -3q-10 8 -7 17.5t-5 19.5q-4 -2 -7 -4t-7 -2q-43 -8 -43 23z" />
<glyph unicode="&#xf1;" horiz-adv-x="890" d="M-72 182q10 49 16.5 93t16.5 87q29 119 59.5 237t63.5 235q29 109 61.5 214t65.5 214q2 16 16 30q4 4 11.5 5t7.5 -5q4 -18 15 -19t26 -1q27 0 32 -5t3 -26q0 -16 -2.5 -31.5t-6.5 -31.5l9 -2q10 23 19 43t15 43q10 33 54 32h14q29 -2 53.5 1t38.5 38q8 -29 1 -49 t-13 -41q-4 -14 -3 -23.5t27 -11.5q12 -2 16.5 -10t4.5 -16v-70q-6 -129 -12.5 -258t-4.5 -262q10 8 13.5 16t7.5 17q31 92 51.5 183t48.5 183q23 61 40.5 124t35.5 126q4 16 9 31.5t26 30.5q12 -37 57 -31q16 4 23.5 -5.5t5.5 -21.5q-2 -14 -5 -28.5t1 -30.5q27 33 37 76 q8 31 43 30q8 2 20 2q29 -2 54.5 0t37.5 33q10 -10 9.5 -16t-3.5 -13q-6 -35 -19 -69.5t-28 -69.5q-59 -137 -114.5 -273t-108.5 -276q-37 -98 -79 -193t-83 -192q-2 -8 -10 -8q0 23 9.5 45.5t9.5 46.5q-37 -55 -61.5 -113.5t-57.5 -113.5q0 43 7 87t3 93 q-18 -18 -24.5 -37.5t-26.5 -31.5q-6 14 -3 25t7 24q10 35 8 69.5t-6 71.5q-6 59 -11 120.5t-14 123.5q-4 -41 -3 -81t3 -81t4.5 -81t-2.5 -81q-31 129 -59.5 255t-42.5 259q-18 -6 -21.5 -18.5t-7.5 -22.5q-41 -104 -80.5 -207.5t-87.5 -208.5q-12 -31 -26.5 -60.5 t-30.5 -59.5q-4 20 3 37.5t7 37.5q-39 -55 -64.5 -115.5t-62.5 -117.5q4 45 9.5 91t11.5 99q-23 -23 -31 -45t-33 -45zM444 1357q2 5 6 11q16 29 34.5 56.5t43.5 50.5q47 43 106 43q31 0 57.5 -13.5t43.5 -36.5q10 -16 24.5 -17t32.5 5q20 6 35.5 19.5t32.5 25.5 q6 -16 -1 -26.5t-10 -24.5q29 10 39.5 29t28.5 33q6 -12 0 -19.5t-10 -17.5q-10 -16 -21.5 -34t-21.5 -34q-16 -29 -47 -45t-66 -16q-51 0 -88 34q-27 27 -45 27q-10 0 -20.5 -5t-26.5 -15q-4 -2 -6 -4.5t-6 -4.5l-23 -16q-4 -2 -6 -4t-6 -4q-10 6 -4 11t2 11 q-12 2 -19.5 -5t-17.5 -11t-16.5 -10t-18.5 -4q-8 6 -6 11zM727 1374q33 -16 53 2q-12 -2 -24.5 1t-28.5 -3z" />
<glyph unicode="&#xf2;" horiz-adv-x="817" d="M10 375q0 68 17.5 148.5t45 161.5t61.5 157t69 133q8 10 14 20.5t14 20.5q25 33 56 33q18 0 41 -9q12 -4 18 -2t14 11q20 16 31 16q10 0 23 -23q2 -10 16 -14q35 -10 39 -19.5t-14 -37.5q-33 -51 -58.5 -103.5t-54.5 -103.5q-4 -12 -4 -16q16 4 18 15t11 21q8 10 15 21.5 t13 21.5q6 -10 3 -16t-7 -12q-57 -92 -92 -190.5t-63 -200.5q-10 -41 4 -76q12 -27 30 -27q14 0 34 15.5t39 35t35.5 40t22.5 30.5q76 117 131.5 237.5t81.5 251.5q12 39 -2 86q-29 84 -129 97q-53 8 -108 -4q-70 -14 -133.5 -38t-118.5 -61q-8 -4 -15.5 -11t-17.5 -3 q29 25 56.5 50.5t56.5 49.5q31 23 67.5 39.5t71.5 36.5q-53 -6 -97 -28.5t-93 -38.5q-4 12 3 16t15 8q41 14 41 55q0 16 9 24.5t24 14.5q16 6 30.5 12.5t28.5 12.5q74 37 154 47t164 0q68 -10 119.5 -40t80.5 -87q35 -66 38 -133.5t-11 -136.5q-27 -121 -78 -232.5 t-117 -220.5q0 -4 -2 -4t-6 -4q-4 16 6.5 31.5t5.5 35.5q-41 -43 -61 -92q-25 -59 -78 -121.5t-100 -105.5q-4 -6 -11.5 -11t-13.5 -12q-51 -37 -112 -36q-43 0 -82 19.5t-62 57.5q-33 53 -49 111.5t-8 122.5q4 35 8 71.5t8 73.5q-29 -37 -45 -122t-12 -187 q-20 31 -23.5 59.5t-5.5 57.5zM299 158q55 -3 86 22q68 55 115 133q-49 -41 -93.5 -84t-107.5 -71zM319 702q23 27 19 43q-16 -12 -19 -43zM404 1463.5q-1 10.5 17 26.5q10 10 14.5 22.5t12.5 23.5q20 27 45 26q16 0 37 -14q10 -8 18.5 -15.5t16.5 -17.5q31 -43 66.5 -85 t70.5 -83q6 -6 -4 -12l-94 45q-6 -8 0 -13.5t-2 -15.5q-41 29 -86 48.5t-88 41.5q-23 12 -24 22.5z" />
<glyph unicode="&#xf3;" horiz-adv-x="817" d="M10 375q0 68 17.5 148.5t45 161.5t61.5 157t69 133q8 10 14 20.5t14 20.5q25 33 56 33q18 0 41 -9q12 -4 18 -2t14 11q20 16 31 16q10 0 23 -23q2 -10 16 -14q35 -10 39 -19.5t-14 -37.5q-33 -51 -58.5 -103.5t-54.5 -103.5q-4 -12 -4 -16q16 4 18 15t11 21q8 10 15 21.5 t13 21.5q6 -10 3 -16t-7 -12q-57 -92 -92 -190.5t-63 -200.5q-10 -41 4 -76q12 -27 30 -27q14 0 34 15.5t39 35t35.5 40t22.5 30.5q76 117 131.5 237.5t81.5 251.5q12 39 -2 86q-29 84 -129 97q-53 8 -108 -4q-70 -14 -133.5 -38t-118.5 -61q-8 -4 -15.5 -11t-17.5 -3 q29 25 56.5 50.5t56.5 49.5q31 23 67.5 39.5t71.5 36.5q-53 -6 -97 -28.5t-93 -38.5q-4 12 3 16t15 8q41 14 41 55q0 16 9 24.5t24 14.5q16 6 30.5 12.5t28.5 12.5q74 37 154 47t164 0q68 -10 119.5 -40t80.5 -87q35 -66 38 -133.5t-11 -136.5q-27 -121 -78 -232.5 t-117 -220.5q0 -4 -2 -4t-6 -4q-4 16 6.5 31.5t5.5 35.5q-41 -43 -61 -92q-25 -59 -78 -121.5t-100 -105.5q-4 -6 -11.5 -11t-13.5 -12q-51 -37 -112 -36q-43 0 -82 19.5t-62 57.5q-33 53 -49 111.5t-8 122.5q4 35 8 71.5t8 73.5q-29 -37 -45 -122t-12 -187 q-20 31 -23.5 59.5t-5.5 57.5zM299 158q55 -3 86 22q68 55 115 133q-49 -41 -93.5 -84t-107.5 -71zM319 702q23 27 19 43q-16 -12 -19 -43zM580 1329q16 35 28.5 64.5t30.5 56.5q23 29 45.5 56.5t38.5 58.5q12 23 35 22q12 2 29.5 -4t34 -16.5t29 -22.5t12.5 -22 q0 -18 -15 -27q-45 -35 -88 -66.5t-88 -66.5q-6 -4 -14 -8t-21 0q4 14 15.5 24t15.5 29q-29 -16 -45 -36.5t-43 -41.5z" />
<glyph unicode="&#xf4;" horiz-adv-x="817" d="M10 375q0 68 17.5 148.5t45 161.5t61.5 157t69 133q8 10 14 20.5t14 20.5q25 33 56 33q18 0 41 -9q12 -4 18 -2t14 11q20 16 31 16q10 0 23 -23q2 -10 16 -14q35 -10 39 -19.5t-14 -37.5q-33 -51 -58.5 -103.5t-54.5 -103.5q-4 -12 -4 -16q16 4 18 15t11 21q8 10 15 21.5 t13 21.5q6 -10 3 -16t-7 -12q-57 -92 -92 -190.5t-63 -200.5q-10 -41 4 -76q12 -27 30 -27q14 0 34 15.5t39 35t35.5 40t22.5 30.5q76 117 131.5 237.5t81.5 251.5q12 39 -2 86q-29 84 -129 97q-53 8 -108 -4q-70 -14 -133.5 -38t-118.5 -61q-8 -4 -15.5 -11t-17.5 -3 q29 25 56.5 50.5t56.5 49.5q31 23 67.5 39.5t71.5 36.5q-53 -6 -97 -28.5t-93 -38.5q-4 12 3 16t15 8q41 14 41 55q0 16 9 24.5t24 14.5q16 6 30.5 12.5t28.5 12.5q74 37 154 47t164 0q68 -10 119.5 -40t80.5 -87q35 -66 38 -133.5t-11 -136.5q-27 -121 -78 -232.5 t-117 -220.5q0 -4 -2 -4t-6 -4q-4 16 6.5 31.5t5.5 35.5q-41 -43 -61 -92q-25 -59 -78 -121.5t-100 -105.5q-4 -6 -11.5 -11t-13.5 -12q-51 -37 -112 -36q-43 0 -82 19.5t-62 57.5q-33 53 -49 111.5t-8 122.5q4 35 8 71.5t8 73.5q-29 -37 -45 -122t-12 -187 q-20 31 -23.5 59.5t-5.5 57.5zM299 158q55 -3 86 22q68 55 115 133q-49 -41 -93.5 -84t-107.5 -71zM319 702q23 27 19 43q-16 -12 -19 -43zM458.5 1370.5q-7.5 16.5 4.5 32.5q35 47 73 93t97 75q18 8 39 12q35 6 45 -18q16 -45 35 -88t27 -90q2 -12 7 -24.5t1 -29.5 q-16 6 -20.5 17.5t-14.5 19.5q-4 0 -5 -5t-3 -9t-6.5 -5t-12.5 7q-10 10 -18 22.5t-17 26.5q-6 12 -11 25.5t-19 25.5q-29 -33 -53.5 -65.5t-61.5 -67.5q4 33 19.5 55.5t23.5 51.5q-37 -25 -55 -60q-16 -35 -49 -24q-18 6 -25.5 22.5z" />
<glyph unicode="&#xf5;" horiz-adv-x="817" d="M10 375q0 68 17.5 148.5t45 161.5t61.5 157t69 133q8 10 14 20.5t14 20.5q25 33 56 33q18 0 41 -9q12 -4 18 -2t14 11q20 16 31 16q10 0 23 -23q2 -10 16 -14q35 -10 39 -19.5t-14 -37.5q-33 -51 -58.5 -103.5t-54.5 -103.5q-4 -12 -4 -16q16 4 18 15t11 21q8 10 15 21.5 t13 21.5q6 -10 3 -16t-7 -12q-57 -92 -92 -190.5t-63 -200.5q-10 -41 4 -76q12 -27 30 -27q14 0 34 15.5t39 35t35.5 40t22.5 30.5q76 117 131.5 237.5t81.5 251.5q12 39 -2 86q-29 84 -129 97q-53 8 -108 -4q-70 -14 -133.5 -38t-118.5 -61q-8 -4 -15.5 -11t-17.5 -3 q29 25 56.5 50.5t56.5 49.5q31 23 67.5 39.5t71.5 36.5q-53 -6 -97 -28.5t-93 -38.5q-4 12 3 16t15 8q41 14 41 55q0 16 9 24.5t24 14.5q16 6 30.5 12.5t28.5 12.5q74 37 154 47t164 0q68 -10 119.5 -40t80.5 -87q35 -66 38 -133.5t-11 -136.5q-27 -121 -78 -232.5 t-117 -220.5q0 -4 -2 -4t-6 -4q-4 16 6.5 31.5t5.5 35.5q-41 -43 -61 -92q-25 -59 -78 -121.5t-100 -105.5q-4 -6 -11.5 -11t-13.5 -12q-51 -37 -112 -36q-43 0 -82 19.5t-62 57.5q-33 53 -49 111.5t-8 122.5q4 35 8 71.5t8 73.5q-29 -37 -45 -122t-12 -187 q-20 31 -23.5 59.5t-5.5 57.5zM299 158q55 -3 86 22q68 55 115 133q-49 -41 -93.5 -84t-107.5 -71zM319 702q23 27 19 43q-16 -12 -19 -43zM414 1343q2 5 6 11q16 29 34.5 56.5t43.5 50.5q47 43 106 43q31 0 57.5 -13.5t43.5 -36.5q10 -16 24.5 -17t32.5 5q20 6 35.5 19.5 t32.5 25.5q6 -16 -1 -26.5t-10 -24.5q29 10 39.5 29t28.5 33q6 -12 0 -19.5t-10 -17.5q-10 -16 -21.5 -34t-21.5 -34q-16 -29 -47 -45t-66 -16q-51 0 -88 34q-27 27 -45 27q-10 0 -20.5 -5t-26.5 -15q-4 -2 -6 -4.5t-6 -4.5l-23 -16q-4 -2 -6 -4t-6 -4q-10 6 -4 11t2 11 q-12 2 -19.5 -5t-17.5 -11t-16.5 -10t-18.5 -4q-8 6 -6 11zM697 1360q33 -16 53 2q-12 -2 -24.5 1t-28.5 -3z" />
</font>
</defs>
</svg>
